<?xml version="1.0" standalone="no"?>
<!DOCTYPE svg PUBLIC "-//W3C//DTD SVG 1.1//EN" "http://www.w3.org/Graphics/SVG/1.1/DTD/svg11.dtd" >
<svg xmlns="http://www.w3.org/2000/svg">
<metadata></metadata>
<defs>
<font id="sansationbold" horiz-adv-x="565" >
<font-face units-per-em="2048" ascent="1638" descent="-410" />
<missing-glyph horiz-adv-x="450" />
<glyph unicode="ffi" horiz-adv-x="1050" d="M0 0v1050h1050v-1050h-1050z" />
<glyph unicode="&#xfb01;" horiz-adv-x="1161" d="M125 0v1101q0 401 472 401q169 0 339 -70v-210q-154 70 -320 70q-226 0 -226 -183v-59h646v-1050h-265v840h-381v-840h-265z" />
<glyph unicode="&#xfb02;" horiz-adv-x="1191" d="M125 0v1101q0 401 522 401q199 0 419 -70v-1432h-265v1274q-80 18 -165 18q-246 0 -246 -183v-59h235v-210h-235v-840h-265z" />
<glyph horiz-adv-x="2048" />
<glyph horiz-adv-x="2048" />
<glyph unicode="&#xd;" horiz-adv-x="390" />
<glyph unicode=" "  horiz-adv-x="450" />
<glyph unicode="&#x09;" horiz-adv-x="450" />
<glyph unicode="&#xa0;" horiz-adv-x="450" />
<glyph unicode="!" d="M150 0v245h265v-245h-265zM150 370v1060h265v-1060h-265z" />
<glyph unicode="&#x22;" horiz-adv-x="815" d="M100 1430h245l-30 -435h-185zM470 1430h245l-30 -435h-185z" />
<glyph unicode="#" horiz-adv-x="1893" d="M100 344l30 154h402l89 378h-401l30 154h412l100 395h180l-100 -395h378l102 400h180l-101 -400h392l-30 -154h-402l-89 -378h401l-30 -154h-412l-90 -349h-180l90 349h-378l-90 -349h-180l89 349h-392zM713 498h377l90 378h-377z" />
<glyph unicode="$" horiz-adv-x="1025" d="M75 910q0 275 324 321v199h255v-195q136 -12 261 -55v-220q-175 70 -380 70q-215 0 -215 -110q0 -105 125 -105h170q350 0 350 -315q0 -276 -311 -321v-179h-255v175q-148 12 -274 55v220q175 -70 404 -70q171 0 171 110q0 105 -115 105h-190q-320 0 -320 315z" />
<glyph unicode="%" horiz-adv-x="1502" d="M100 0l1017 1430h265l-1017 -1430h-265zM100 1140q0 300 328 300q324 0 324 -300q0 -319 -324 -319q-328 0 -328 319zM290 1142q0 -147 138 -147q134 0 134 147q0 124 -134 124q-138 0 -138 -124zM750 299q0 310 328 310q324 0 324 -310q0 -309 -324 -309 q-328 0 -328 309zM940 301q0 -137 138 -137q134 0 134 137q0 134 -134 134q-138 0 -138 -134z" />
<glyph unicode="&#x26;" horiz-adv-x="1335" d="M100 414q0 227 183 313q-183 85 -183 308q0 395 510 395q185 0 360 -50v-210q-175 50 -347 50q-258 0 -258 -180q0 -210 205 -210h338v142h143l102 -142h182v-210h-162v-130q0 -493 -548 -493q-525 0 -525 417zM365 419q0 -209 261 -209q282 0 282 282v128h-336 q-207 0 -207 -201z" />
<glyph unicode="'" horiz-adv-x="445" d="M100 1430h245l-30 -435h-185z" />
<glyph unicode="(" horiz-adv-x="640" d="M100 525q0 453 200 905h265q-200 -452 -200 -905t200 -905h-265q-200 452 -200 905z" />
<glyph unicode=")" horiz-adv-x="640" d="M75 -380q200 452 200 905t-200 905h265q200 -452 200 -905t-200 -905h-265z" />
<glyph unicode="*" horiz-adv-x="810" d="M100 1150l48 150l211 -103l-31 233h156l-30 -232l209 101l48 -147l-228 -43l159 -170l-123 -92l-113 205l-113 -204l-124 89l161 171z" />
<glyph unicode="+" horiz-adv-x="950" d="M100 420v210h270v270h210v-270h270v-210h-270v-270h-210v270h-270z" />
<glyph unicode="," horiz-adv-x="465" d="M25 -250l150 435h265l-150 -435h-265z" />
<glyph unicode="-" horiz-adv-x="700" d="M100 420v210h500v-210h-500z" />
<glyph unicode="." horiz-adv-x="465" d="M100 0v245h265v-245h-265z" />
<glyph unicode="/" horiz-adv-x="1060" d="M25 0l725 1430h285l-725 -1430h-285z" />
<glyph unicode="0" horiz-adv-x="1445" d="M90 713q0 727 638 727q627 0 627 -727q0 -723 -627 -723q-638 0 -638 723zM365 719q0 -499 363 -499q352 0 352 499q0 491 -352 491q-363 0 -363 -491z" />
<glyph unicode="1" horiz-adv-x="690" d="M100 1211v109l415 140v-1460h-265v1211h-150z" />
<glyph unicode="2" horiz-adv-x="1180" d="M100 0v200q715 497 715 820q0 190 -260 190q-220 0 -415 -110v240q195 100 415 100q525 0 525 -420q0 -370 -573 -790h573v-230h-980z" />
<glyph unicode="3" horiz-adv-x="1115" d="M100 50v240q200 -70 420 -70q270 0 270 180q0 210 -192 210h-348v230h345q195 0 195 210q0 160 -270 160q-220 0 -420 -70v240q200 60 420 60q535 0 535 -390q0 -236 -188 -325q188 -85 188 -325q0 -410 -535 -410q-220 0 -420 60z" />
<glyph unicode="4" horiz-adv-x="1220" d="M60 310v200l585 920h284l-566 -910h419v478h265v-478l148 -136v-74h-148v-310h-265v310h-722z" />
<glyph unicode="5" horiz-adv-x="1160" d="M125 50v220q200 -70 410 -70q285 0 285 250q0 230 -275 230q-225 0 -420 -50l50 800h854v-210h-626l-24 -352q57 22 166 22q540 0 540 -440q0 -460 -560 -460q-200 0 -400 60z" />
<glyph unicode="6" horiz-adv-x="1250" d="M100 550q0 556 688 923l126 -207q-352 -161 -484 -389q121 43 246 43q524 0 524 -440q0 -490 -563 -490q-537 0 -537 560zM355 556q0 -356 291 -356q293 0 293 280q0 230 -272 230q-154 0 -294 -48q-18 -40 -18 -106z" />
<glyph unicode="7" horiz-adv-x="1170" d="M100 1200v230h1020v-210l-642 -1220h-291l652 1200h-739z" />
<glyph unicode="8" horiz-adv-x="1280" d="M80 424q0 223 212 331q-172 95 -172 323q0 366 520 366t520 -366q0 -228 -177 -323q217 -108 217 -331q0 -434 -550 -434q-570 0 -570 434zM345 418q0 -198 310 -198q280 0 280 198q0 212 -293 212q-297 0 -297 -212zM385 1048q0 -188 260 -188q250 0 250 188 q0 162 -253 162q-257 0 -257 -162z" />
<glyph unicode="9" horiz-adv-x="1265" d="M100 963q0 480 563 480q537 0 537 -560q0 -556 -688 -923l-126 207q342 161 484 399q-121 -53 -246 -53q-524 0 -524 450zM361 963q0 -240 272 -240q154 0 294 48q18 40 18 106q0 356 -291 356q-293 0 -293 -270z" />
<glyph unicode=":" horiz-adv-x="490" d="M125 0v245h265v-245h-265zM125 805v245h265v-245h-265z" />
<glyph unicode=";" horiz-adv-x="615" d="M100 -250l150 435h265l-150 -435h-265zM250 805v245h265v-245h-265z" />
<glyph unicode="&#x3c;" horiz-adv-x="1100" d="M100 430v190l900 380v-250l-573 -229l573 -221v-250z" />
<glyph unicode="=" horiz-adv-x="950" d="M100 240v210h750v-210h-750zM100 600v210h750v-210h-750z" />
<glyph unicode="&#x3e;" horiz-adv-x="1100" d="M100 50v250l573 221l-573 229v250l900 -380v-190z" />
<glyph unicode="?" horiz-adv-x="1115" d="M100 1170v210q210 50 400 50q515 0 515 -390q0 -440 -500 -440v-230h-265v440h265q255 0 255 230q0 180 -270 180q-190 0 -400 -50zM250 0v245h265v-245h-265z" />
<glyph unicode="@" horiz-adv-x="2130" d="M100 540q0 900 964 900q966 0 966 -900q0 -690 -447 -690q-281 0 -291 244q-137 -94 -302 -94q-385 0 -385 327q0 313 456 313q107 0 214 -20v79q0 141 -203 141q-172 0 -382 -50v210q210 50 382 50q468 0 468 -346v-586q0 -58 80 -58q145 0 145 480q0 690 -686 690 q-714 0 -714 -690q0 -710 645 -710v-210q-910 0 -910 920zM870 330q0 -140 160 -140q132 0 245 82v168q-100 20 -214 20q-191 0 -191 -130z" />
<glyph unicode="A" horiz-adv-x="1562" d="M25 0l607 1430h285l620 -1430h-285l-163 390h-475l91 230h288l-225 537l-471 -1157h-272z" />
<glyph unicode="B" horiz-adv-x="1321" d="M150 0v1430h670q408 0 408 -333q0 -244 -266 -349q284 -53 284 -325q0 -423 -447 -423h-649zM415 230h373q176 0 176 180q0 223 -263 223h-80v171q330 55 330 276q0 120 -148 120h-388v-970z" />
<glyph unicode="C" horiz-adv-x="1390" d="M100 735q0 705 770 705q235 0 420 -70v-240q-185 80 -400 80q-515 0 -515 -475q0 -515 515 -515q215 0 400 80v-240q-185 -70 -420 -70q-770 0 -770 745z" />
<glyph unicode="D" horiz-adv-x="1495" d="M150 0v1430h560q710 0 710 -676q0 -754 -710 -754h-560zM415 230h295q445 0 445 524q0 446 -445 446h-295v-970z" />
<glyph unicode="E" horiz-adv-x="1238" d="M150 0v1430h979v-228h-716v-360h682v-237h-685v-375h733v-230h-993z" />
<glyph unicode="F" horiz-adv-x="1164" d="M150 0v1430h939v-228h-676v-360h642v-237h-645v-605h-260z" />
<glyph unicode="G" horiz-adv-x="1390" d="M100 735q0 705 770 705q235 0 420 -70v-240q-185 80 -400 80q-515 0 -515 -475q0 -515 486 -515q72 0 164 24v416h265v-594q-173 -76 -433 -76q-757 0 -757 745z" />
<glyph unicode="H" horiz-adv-x="1535" d="M150 0v1430h265v-590h705v590h265v-1430h-265v610h-705v-610h-265z" />
<glyph unicode="I" d="M150 0v1430h265v-1430h-265z" />
<glyph unicode="J" horiz-adv-x="740" d="M25 0v230q300 0 300 182v1018h265v-1018q0 -412 -565 -412z" />
<glyph unicode="K" horiz-adv-x="1435" d="M150 0v1430h265v-1430h-265zM565 668v172l532 590h324l-610 -667l674 -763h-367z" />
<glyph unicode="L" horiz-adv-x="1083" d="M150 0v1430h265v-1200h568v-230h-833z" />
<glyph unicode="M" horiz-adv-x="1800" d="M150 0v1430h275l485 -1085l475 1085h265v-1430h-245v996l-388 -996h-226l-396 996v-996h-245z" />
<glyph unicode="N" horiz-adv-x="1575" d="M150 0v1430h265l755 -1042v1042h255v-1430h-265l-755 1064v-1064h-255z" />
<glyph unicode="O" horiz-adv-x="1625" d="M100 713q0 727 718 727q707 0 707 -727q0 -723 -707 -723q-686 0 -718 723zM375 719q0 -499 443 -499q432 0 432 499q0 491 -432 491q-443 0 -443 -491z" />
<glyph unicode="P" horiz-adv-x="1253" d="M150 0v1430h640q438 0 438 -403q0 -437 -599 -529l-38 236q360 65 360 285q0 178 -178 178h-358v-1197h-265z" />
<glyph unicode="Q" horiz-adv-x="1625" d="M100 713q0 727 718 727q707 0 707 -727q0 -598 -445 -706l232 -270l-209 -159l-325 412q-646 0 -678 723zM375 719q0 -499 443 -499q432 0 432 499q0 491 -432 491q-443 0 -443 -491z" />
<glyph unicode="R" horiz-adv-x="1325" d="M150 2v1428h650q438 0 438 -383q0 -259 -341 -429l453 -618h-334l-435 623v121q380 65 380 295q0 158 -178 158h-363v-1195h-270z" />
<glyph unicode="S" horiz-adv-x="1280" d="M75 1000q0 440 625 440q240 0 455 -70v-240q-215 80 -455 80q-360 0 -360 -210q0 -160 174 -160h224q467 0 467 -400q0 -450 -594 -450q-271 0 -486 70v240q215 -80 486 -80q329 0 329 220q0 160 -202 160h-224q-439 0 -439 400z" />
<glyph unicode="T" horiz-adv-x="1085" d="M0 1200v230h1085v-230h-410v-1200h-265v1200h-410z" />
<glyph unicode="U" horiz-adv-x="1530" d="M150 562v868h265v-868q0 -342 350 -342t350 342v868h265v-868q0 -572 -615 -572t-615 572z" />
<glyph unicode="V" horiz-adv-x="1512" d="M0 1430h315l443 -1095l442 1095h312l-627 -1430h-285z" />
<glyph unicode="W" horiz-adv-x="1890" d="M35 1430h269l153 -1027l372 1027h255l348 -987l162 987h261l-269 -1430h-252l-393 1122l-422 -1122h-249z" />
<glyph unicode="X" horiz-adv-x="1502" d="M25 0l563 715l-563 715h335l395 -522l395 522h335l-562 -715l562 -715h-335l-395 522l-395 -522h-335z" />
<glyph unicode="Y" horiz-adv-x="1300" d="M25 1430h285l402 -689l378 689h275l-526 -930v-500h-265v500z" />
<glyph unicode="Z" horiz-adv-x="1250" d="M125 0v230l794 970h-774v230h1040v-230l-761 -970h761v-230h-1060z" />
<glyph unicode="[" horiz-adv-x="680" d="M100 -380v1810h530v-210h-265v-1390h265v-210h-530z" />
<glyph unicode="\" horiz-adv-x="1060" d="M25 1430h285l725 -1430h-285z" />
<glyph unicode="]" horiz-adv-x="680" d="M50 -170h265v1390h-265v210h530v-1810h-530v210z" />
<glyph unicode="^" horiz-adv-x="1050" d="M50 700l400 730h150l400 -730h-230l-249 473l-241 -473h-230z" />
<glyph unicode="_" horiz-adv-x="1050" d="M25 0h1000v-210h-1000v210z" />
<glyph unicode="`" horiz-adv-x="663" d="M100 1430h319l144 -259h-224z" />
<glyph unicode="a" horiz-adv-x="1135" d="M75 327q0 313 456 313q107 0 214 -20v79q0 141 -203 141q-172 0 -382 -50v210q210 50 382 50q468 0 468 -346v-704h-154l-94 94q-137 -94 -302 -94q-385 0 -385 327zM340 330q0 -140 160 -140q132 0 245 82v168q-100 20 -214 20q-191 0 -191 -130z" />
<glyph unicode="b" horiz-adv-x="1178" d="M125 43v1387h265v-460q119 80 265 80q448 0 448 -504q0 -546 -513 -546q-216 0 -465 43zM390 243q91 -29 211 -29q240 0 240 339q0 277 -207 277q-134 0 -244 -54v-533z" />
<glyph unicode="c" horiz-adv-x="950" d="M70 545q0 505 560 505q140 0 270 -30v-210q-130 30 -250 30q-315 0 -315 -295q0 -335 315 -335q120 0 250 30v-210q-130 -30 -270 -30q-560 0 -560 545z" />
<glyph unicode="d" horiz-adv-x="1180" d="M75 546q0 504 498 504q106 0 217 -50v430h265v-1367q-241 -63 -471 -63q-509 0 -509 546zM337 553q0 -329 257 -329q104 0 196 29v523q-82 54 -206 54q-247 0 -247 -277z" />
<glyph unicode="e" horiz-adv-x="1120" d="M75 537q0 513 493 513q478 0 478 -488q0 -65 -9 -130h-697q0 -222 326 -222q159 0 318 30v-210q-139 -30 -338 -30q-571 0 -571 537zM340 616h448v8q0 218 -220 218q-210 0 -228 -226z" />
<glyph unicode="f" horiz-adv-x="741" d="M125 0v1050q0 432 472 432q129 0 234 -40v-210q-99 40 -215 40q-226 0 -226 -222h315v-210h-315v-840h-265z" />
<glyph unicode="g" horiz-adv-x="1187" d="M75 531q0 519 545 519q183 0 442 -43v-927q0 -460 -553 -460q-194 0 -344 50v210q153 -50 346 -50q286 0 286 240q-118 -50 -254 -50q-468 0 -468 511zM337 533q0 -293 237 -293q114 0 223 54v518q-65 24 -185 24q-275 0 -275 -303z" />
<glyph unicode="h" horiz-adv-x="1205" d="M125 0v1430h265v-514q124 134 317 134q373 0 373 -388v-662h-265v662q0 174 -173 174q-129 0 -252 -103v-733h-265z" />
<glyph unicode="i" horiz-adv-x="515" d="M125 0v1050h265v-1050h-265zM125 1220v210h265v-210h-265z" />
<glyph unicode="j" horiz-adv-x="515" d="M0 -293q125 135 125 373v970h265v-970q0 -318 -182 -518zM125 1220v210h265v-210h-265z" />
<glyph unicode="k" horiz-adv-x="1206" d="M125 0v1430h265v-462q163 82 343 82q402 0 402 -303q0 -220 -280 -344l326 -403h-324l-274 375v123q287 61 287 200q0 142 -190 142q-133 0 -290 -84v-756h-265z" />
<glyph unicode="l" horiz-adv-x="515" d="M125 0v1430h265v-1430h-265z" />
<glyph unicode="m" horiz-adv-x="1795" d="M125 0v1050h205l31 -152q141 152 339 152t271 -144q161 144 337 144q362 0 362 -399v-651h-265v661q0 175 -158 175q-118 0 -227 -106v-730h-265v658q0 178 -146 178q-116 0 -219 -106v-730h-265z" />
<glyph unicode="n" horiz-adv-x="1205" d="M125 0v1050h205l33 -154q151 154 344 154q373 0 373 -388v-662h-265v662q0 174 -173 174q-129 0 -252 -103v-733h-265z" />
<glyph unicode="o" horiz-adv-x="1190" d="M75 525q0 528 520 528t520 -528q0 -527 -520 -527q-518 0 -520 527zM340 529q0 -329 255 -329t255 329q0 321 -255 321t-255 -321z" />
<glyph unicode="p" horiz-adv-x="1177" d="M125 -380v1387q209 43 442 43q535 0 535 -499q0 -551 -498 -551q-106 0 -214 50v-430h-265zM390 274q99 -54 213 -54q237 0 237 333q0 283 -262 283q-113 0 -188 -14v-548z" />
<glyph unicode="q" horiz-adv-x="1187" d="M75 531q0 519 545 519q203 0 442 -43v-1387h-265v430q-108 -50 -244 -50q-478 0 -478 531zM337 533q0 -313 247 -313q124 0 213 54v538q-95 24 -175 24q-285 0 -285 -303z" />
<glyph unicode="r" horiz-adv-x="680" d="M125 0v1050h205l33 -134q138 134 292 134v-214q-148 0 -265 -123v-713h-265z" />
<glyph unicode="s" horiz-adv-x="1025" d="M75 730q0 330 467 330q198 0 373 -60v-220q-175 70 -380 70q-215 0 -215 -110q0 -105 125 -105h170q350 0 350 -315q0 -330 -446 -330q-219 0 -394 60v220q175 -70 404 -70q171 0 171 110q0 105 -115 105h-190q-320 0 -320 315z" />
<glyph unicode="t" horiz-adv-x="665" d="M110 283v937h196l40 -170h264v-210h-235v-483q0 -147 127 -147h108v-210h-236q-264 0 -264 283z" />
<glyph unicode="u" horiz-adv-x="1195" d="M125 381v669h265v-662q0 -174 152 -174q129 0 263 103v733h265v-1050h-207l-32 134q-181 -134 -384 -134q-322 0 -322 381z" />
<glyph unicode="v" horiz-adv-x="1080" d="M0 1050h280l255 -734l265 734h280l-427 -1050h-252z" />
<glyph unicode="w" horiz-adv-x="1599" d="M35 1050h267l136 -731l243 731h227l262 -731l118 731h276l-274 -1050h-249l-247 745l-250 -745h-253z" />
<glyph unicode="x" horiz-adv-x="1080" d="M0 0l393 525l-393 525h295l245 -328l245 328h295l-392 -525l392 -525h-295l-245 328l-245 -328h-295z" />
<glyph unicode="y" horiz-adv-x="1081" d="M0 1050h281l265 -756l259 756h276l-436 -1081q-116 -286 -371 -407l-128 181q176 77 256 251z" />
<glyph unicode="z" horiz-adv-x="990" d="M100 0v200l545 640h-525v210h810v-210l-537 -640h517v-200h-810z" />
<glyph unicode="{" horiz-adv-x="755" d="M100 410v230q210 0 210 312q0 302 130 478h265q-130 -176 -130 -478q0 -352 -250 -427q250 -75 250 -427q0 -302 130 -478h-265q-130 176 -130 478q0 312 -210 312z" />
<glyph unicode="|" d="M150 -380v1810h265v-1810h-265z" />
<glyph unicode="}" horiz-adv-x="755" d="M50 -380q130 176 130 478q0 352 170 427q-170 75 -170 427q0 302 -130 478h265q130 -176 130 -478q0 -312 210 -312v-230q-210 0 -210 -312q0 -302 -130 -478h-265z" />
<glyph unicode="~" horiz-adv-x="950" d="M100 400v210q58 61 162 61q86 0 203 -41q117 -40 207 -40q109 0 178 60v-210q-58 -60 -162 -60q-86 0 -203 40q-117 41 -207 41q-109 0 -178 -61z" />
<glyph unicode="&#xa1;" d="M150 -380v1060h265v-1060h-265zM150 805v245h265v-245h-265z" />
<glyph unicode="&#xa2;" horiz-adv-x="980" d="M60 735q0 435 430 495v200h255v-193q99 -7 185 -27v-210q-130 30 -270 30q-335 0 -335 -295q0 -335 335 -335q140 0 270 30v-210q-86 -20 -185 -27v-193h-255v201q-430 65 -430 534z" />
<glyph unicode="&#xa3;" horiz-adv-x="1217" d="M100 -30v212q186 75 186 231q0 117 -77 291t-77 323q0 413 558 413q270 0 427 -100v-240q-158 130 -434 130q-274 0 -274 -201q0 -144 35 -199h386v-210h-314q39 -104 39 -204q0 -137 -64 -178q22 4 49 4q84 0 213 -43q49 -17 101 -17q125 0 263 98v-230 q-120 -84 -284 -84q-94 0 -201 28q-129 32 -246 32q-153 0 -286 -56z" />
<glyph unicode="&#xa4;" horiz-adv-x="1139" d="M100 173l116 120q-57 103 -57 232q0 137 57 231l-116 120l109 112l125 -121q108 68 242 68q124 0 225 -68l128 121l110 -112l-118 -120q58 -83 58 -231q0 -139 -68 -232l128 -120l-110 -112l-128 123q-108 -60 -233 -60q-124 0 -243 60l-116 -123zM322 529 q0 -246 245 -246t245 246q0 244 -245 244t-245 -244z" />
<glyph unicode="&#xa5;" horiz-adv-x="1250" d="M50 1430h275l292 -510l298 510h285l-413 -660h283v-210h-326v-111h326v-210h-326v-239h-265v239h-319v210h319v111h-319v210h277z" />
<glyph unicode="&#xa6;" d="M150 350h265v-730h-265v730zM150 700v730h264v-730h-264z" />
<glyph unicode="&#xa7;" horiz-adv-x="1090" d="M100 700q0 158 131 216q-131 60 -131 224q0 300 467 300q198 0 373 -50v-220q-175 60 -373 60q-222 0 -222 -90q0 -100 155 -100h70q420 0 420 -307q0 -150 -111 -222q111 -54 111 -221q0 -300 -476 -300q-189 0 -364 50v220q175 -60 364 -60q211 0 211 90 q0 100 -155 100h-70q-400 0 -400 310zM345 717q0 -119 155 -119h70q155 0 155 106q0 127 -155 127h-70q-155 0 -155 -114z" />
<glyph unicode="&#xa8;" horiz-adv-x="755" d="M100 1240v190h215v-190h-215zM440 1240v190h215v-190h-215z" />
<glyph unicode="&#xa9;" horiz-adv-x="1785" d="M150 723q0 717 748 717q737 0 737 -717q0 -733 -737 -733q-748 0 -748 733zM255 719q0 -639 623 -639q652 0 652 639q0 631 -632 631q-643 0 -643 -631zM477 728q0 416 416 416q165 0 290 -51v-98q-125 58 -276 58q-325 0 -325 -325q0 -352 325 -352q151 0 276 58v-98 q-125 -51 -290 -51q-416 0 -416 443z" />
<glyph unicode="&#xaa;" horiz-adv-x="642" d="M100 1069q0 161 213 161q79 0 127 -10v50q0 66 -132 66q-80 0 -166 -26v96q86 24 166 24q234 0 234 -168v-356h-56l-38 36q-58 -36 -150 -36q-198 0 -198 163zM202 1070q0 -70 96 -70t142 42v84q-45 10 -127 10q-111 0 -111 -66z" />
<glyph unicode="&#xab;" horiz-adv-x="1079" d="M50 525l258 375h272l-258 -375l258 -375h-272zM499 525l258 375h272l-258 -375l258 -375h-272z" />
<glyph unicode="&#xac;" horiz-adv-x="1085" d="M100 840v210h885v-400h-210v190h-675z" />
<glyph unicode="&#xad;" horiz-adv-x="700" d="M100 420v210h500v-210h-500z" />
<glyph unicode="&#xae;" horiz-adv-x="1163" d="M150 1023q0 427 430 427q433 0 433 -427q0 -415 -433 -415q-418 0 -430 415zM223 1025q0 -361 357 -361q360 0 360 361q0 369 -360 369q-357 0 -357 -369zM404 756v536h229q153 0 153 -128q0 -105 -150 -155l184 -253h-91l-171 241v45q154 25 154 119q0 74 -86 74h-153 v-479h-69z" />
<glyph unicode="&#xaf;" horiz-adv-x="700" d="M100 1220v210h500v-210h-500z" />
<glyph unicode="&#xb0;" horiz-adv-x="872" d="M100 1110q0 320 338 320q334 0 334 -320q0 -319 -334 -319q-338 0 -338 319zM290 1112q0 -147 148 -147q144 0 144 147q0 144 -144 144q-148 0 -148 -144z" />
<glyph unicode="&#xb1;" horiz-adv-x="950" d="M100 0v210h750v-210h-750zM100 570v210h270v270h210v-270h270v-210h-270v-270h-210v270h-270z" />
<glyph unicode="&#xb2;" horiz-adv-x="590" d="M50 710v175q297 173 297 305q0 65 -90 65t-187 -55v180q97 50 187 50q283 0 283 -240q0 -155 -247 -305h247v-175h-490z" />
<glyph unicode="&#xb3;" horiz-adv-x="578" d="M50 736v180q100 -36 200 -36q86 0 86 50q0 66 -46 66h-164v154h162q48 0 48 66q0 40 -86 40q-100 0 -200 -36v180q100 30 200 30q278 0 278 -214q0 -98 -94 -143q94 -43 94 -143q0 -224 -278 -224q-100 0 -200 30z" />
<glyph unicode="&#xb4;" horiz-adv-x="663" d="M100 1171l144 259h319l-239 -259h-224z" />
<glyph unicode="&#xb6;" horiz-adv-x="953" d="M0 986q0 444 443 444h510v-90h-150v-1774h-100v1774h-160v-1774h-100v972q-443 0 -443 448z" />
<glyph unicode="&#xb7;" horiz-adv-x="450" d="M100 525q0 125 125 125t125 -125t-125 -125t-125 125z" />
<glyph unicode="&#xb8;" horiz-adv-x="687" d="M100 -244q108 -50 216 -50t108 55q0 44 -83 44h-183l131 270h165l-81 -152q214 0 214 -162q0 -183 -271 -183q-108 0 -216 50v128z" />
<glyph unicode="&#xb9;" horiz-adv-x="328" d="M50 1221v95l268 110v-716h-192v511h-76z" />
<glyph unicode="&#xba;" horiz-adv-x="700" d="M100 1168q0 262 250 262t250 -262t-250 -262q-248 0 -250 262zM203 1170q0 -170 147 -170q148 0 148 170q0 166 -148 166q-147 0 -147 -166z" />
<glyph unicode="&#xbb;" horiz-adv-x="1079" d="M50 150l258 375l-258 375h272l258 -375l-258 -375h-272zM499 150l258 375l-258 375h272l258 -375l-258 -375h-272z" />
<glyph unicode="&#xbc;" horiz-adv-x="1449" d="M100 0l825 1430h245l-825 -1430h-245zM100 1221v95l268 110v-716h-192v511h-76zM872 26v180q100 -36 200 -36q84 0 84 50q0 66 -46 66h-164v154h163q47 0 47 66q0 40 -84 40q-100 0 -200 -36v180q100 30 200 30q277 0 277 -214q0 -98 -94 -143q94 -43 94 -143 q0 -224 -277 -224q-100 0 -200 30z" />
<glyph unicode="&#xbd;" horiz-adv-x="1442" d="M100 0l825 1430h245l-825 -1430h-245zM100 1221v95l268 110v-716h-192v511h-76zM852 0v175q298 173 298 305q0 65 -90 65t-188 -55v180q98 50 188 50q282 0 282 -240q0 -155 -248 -305h248v-175h-490z" />
<glyph unicode="&#xbe;" horiz-adv-x="1490" d="M100 736v180q100 -36 200 -36q84 0 84 50q0 66 -46 66h-164v154h163q47 0 47 66q0 40 -84 40q-100 0 -200 -36v180q100 30 200 30q277 0 277 -214q0 -98 -94 -143q94 -43 94 -143q0 -224 -277 -224q-100 0 -200 30zM191 0l825 1430h245l-825 -1430h-245zM782 150v174 l218 390h192l-213 -390h155v224h182v-224l74 -38v-136h-74v-150h-182v150h-352z" />
<glyph unicode="&#xbf;" horiz-adv-x="1115" d="M100 10q0 440 500 440v230h265v-440h-265q-255 0 -255 -230q0 -180 270 -180q190 0 400 50v-210q-210 -50 -400 -50q-515 0 -515 390zM600 805v245h265v-245h-265z" />
<glyph unicode="&#xc0;" horiz-adv-x="1562" d="M25 0l607 1430h285l620 -1430h-285l-163 390h-475l91 230h288l-225 537l-471 -1157h-272zM472 1810h319l144 -259h-224z" />
<glyph unicode="&#xc1;" horiz-adv-x="1562" d="M25 0l607 1430h285l620 -1430h-285l-163 390h-475l91 230h288l-225 537l-471 -1157h-272zM627 1551l144 259h319l-239 -259h-224z" />
<glyph unicode="&#xc2;" horiz-adv-x="1562" d="M25 0l607 1430h285l620 -1430h-285l-163 390h-475l91 230h288l-225 537l-471 -1157h-272zM531 1550l175 260h150l175 -260h-180l-70 130l-70 -130h-180z" />
<glyph unicode="&#xc3;" horiz-adv-x="1562" d="M25 0l607 1430h285l620 -1430h-285l-163 390h-475l91 230h288l-225 537l-471 -1157h-272zM531 1554v210q60 46 130 46q52 0 110 -26t114 -26q75 0 146 46v-210q-60 -46 -130 -46q-52 0 -110 26t-114 26q-75 0 -146 -46z" />
<glyph unicode="&#xc4;" horiz-adv-x="1562" d="M25 0l607 1430h285l620 -1430h-285l-163 390h-475l91 230h288l-225 537l-471 -1157h-272zM504 1620v190h215v-190h-215zM844 1620v190h215v-190h-215z" />
<glyph unicode="&#xc5;" horiz-adv-x="1562" d="M25 0l607 1430h4q-88 49 -88 179q0 210 228 210q224 0 224 -210q0 -130 -86 -179h3l620 -1430h-285l-163 390h-475l91 230h288l-225 537l-471 -1157h-272zM638 1611q0 -137 138 -137q134 0 134 137q0 134 -134 134q-138 0 -138 -134z" />
<glyph unicode="&#xc6;" horiz-adv-x="1925" d="M25 0l607 1430h1148v-230h-788l160 -360h593v-230h-494l166 -380h383v-230h-578l-460 1144l-220 -544h270l68 -210h-419l-154 -390h-282z" />
<glyph unicode="&#xc7;" horiz-adv-x="1390" d="M100 735q0 705 770 705q235 0 420 -70v-240q-185 80 -400 80q-515 0 -515 -475q0 -515 515 -515q215 0 400 80v-240q-182 -69 -413 -70l-36 -67q214 0 214 -162q0 -183 -271 -183q-108 0 -216 50v128q108 -50 216 -50t108 55q0 44 -83 44h-183l94 193q-620 69 -620 737z " />
<glyph unicode="&#xc8;" horiz-adv-x="1238" d="M150 0v1430h979v-228h-716v-360h682v-237h-685v-375h733v-230h-993zM318 1810h319l144 -259h-224z" />
<glyph unicode="&#xc9;" horiz-adv-x="1238" d="M150 0v1430h979v-228h-716v-360h682v-237h-685v-375h733v-230h-993zM472 1551l144 259h319l-239 -259h-224z" />
<glyph unicode="&#xca;" horiz-adv-x="1238" d="M150 0v1430h979v-228h-716v-360h682v-237h-685v-375h733v-230h-993zM377 1550l175 260h150l175 -260h-180l-70 130l-70 -130h-180z" />
<glyph unicode="&#xcb;" horiz-adv-x="1238" d="M150 0v1430h979v-228h-716v-360h682v-237h-685v-375h733v-230h-993zM349 1620v190h215v-190h-215zM689 1620v190h215v-190h-215z" />
<glyph unicode="&#xcc;" d="M-26 1810h319l144 -259h-224zM150 0v1430h265v-1430h-265z" />
<glyph unicode="&#xcd;" d="M128 1551l144 259h319l-239 -259h-224zM150 0v1430h265v-1430h-265z" />
<glyph unicode="&#xce;" d="M33 1550l175 260h150l175 -260h-180l-70 130l-70 -130h-180zM151 0v1430h265v-1430h-265z" />
<glyph unicode="&#xcf;" d="M5 1620v190h215v-190h-215zM150 0v1430h265v-1430h-265zM345 1620v190h215v-190h-215z" />
<glyph unicode="&#xd0;" horiz-adv-x="1455" d="M-50 610v230h200v590h520q710 0 710 -676q0 -754 -710 -754h-520v610h-200zM415 230h255q445 0 445 524q0 446 -445 446h-255v-360h285v-230h-285v-380z" />
<glyph unicode="&#xd1;" horiz-adv-x="1615" d="M150 0v1430h265l755 -1042v1042h255v-1430h-265l-755 1064v-1064h-255zM558 1554v210q60 46 130 46q52 0 110 -26t114 -26q75 0 146 46v-210q-60 -46 -130 -46q-52 0 -110 26t-114 26q-75 0 -146 -46z" />
<glyph unicode="&#xd2;" horiz-adv-x="1625" d="M100 713q0 727 718 727q707 0 707 -727q0 -723 -707 -723q-686 0 -718 723zM375 719q0 -499 443 -499q432 0 432 499q0 491 -432 491q-443 0 -443 -491zM504 1810h319l144 -259h-224z" />
<glyph unicode="&#xd3;" horiz-adv-x="1625" d="M100 713q0 727 718 727q707 0 707 -727q0 -723 -707 -723q-686 0 -718 723zM375 719q0 -499 443 -499q432 0 432 499q0 491 -432 491q-443 0 -443 -491zM658 1551l144 259h319l-239 -259h-224z" />
<glyph unicode="&#xd4;" horiz-adv-x="1625" d="M100 713q0 727 718 727q707 0 707 -727q0 -723 -707 -723q-686 0 -718 723zM375 719q0 -499 443 -499q432 0 432 499q0 491 -432 491q-443 0 -443 -491zM563 1550l175 260h150l175 -260h-180l-70 130l-70 -130h-180z" />
<glyph unicode="&#xd5;" horiz-adv-x="1625" d="M100 713q0 727 718 727q707 0 707 -727q0 -723 -707 -723q-686 0 -718 723zM375 719q0 -499 443 -499q432 0 432 499q0 491 -432 491q-443 0 -443 -491zM563 1554v210q60 46 130 46q52 0 110 -26t114 -26q75 0 146 46v-210q-60 -46 -130 -46q-52 0 -110 26t-114 26 q-75 0 -146 -46z" />
<glyph unicode="&#xd6;" horiz-adv-x="1625" d="M100 713q0 727 718 727q707 0 707 -727q0 -723 -707 -723q-686 0 -718 723zM375 719q0 -499 443 -499q432 0 432 499q0 491 -432 491q-443 0 -443 -491zM535 1620v190h215v-190h-215zM875 1620v190h215v-190h-215z" />
<glyph unicode="&#xd7;" horiz-adv-x="879" d="M100 334l191 191l-191 191l148 148l191 -191l191 191l148 -148l-191 -191l191 -191l-148 -148l-191 191l-191 -191z" />
<glyph unicode="&#xd8;" horiz-adv-x="1625" d="M100 713q0 727 718 727q212 0 361 -66l42 56h258l-130 -172q176 -182 176 -545q0 -723 -707 -723q-221 0 -374 75l-49 -65h-257l142 187q-165 181 -180 526zM375 719q0 -196 69 -315l581 768q-86 38 -207 38q-443 0 -443 -491zM595 264q92 -44 223 -44q432 0 432 499 q0 198 -70 316z" />
<glyph unicode="&#xd9;" horiz-adv-x="1530" d="M150 562v868h265v-868q0 -342 350 -342t350 342v868h265v-868q0 -572 -615 -572t-615 572zM456 1810h319l144 -259h-224z" />
<glyph unicode="&#xda;" horiz-adv-x="1530" d="M150 562v868h265v-868q0 -342 350 -342t350 342v868h265v-868q0 -572 -615 -572t-615 572zM611 1551l144 259h319l-239 -259h-224z" />
<glyph unicode="&#xdb;" horiz-adv-x="1530" d="M150 562v868h265v-868q0 -342 350 -342t350 342v868h265v-868q0 -572 -615 -572t-615 572zM515 1550l175 260h150l175 -260h-180l-70 130l-70 -130h-180z" />
<glyph unicode="&#xdc;" horiz-adv-x="1530" d="M150 562v868h265v-868q0 -342 350 -342t350 342v868h265v-868q0 -572 -615 -572t-615 572zM488 1620v190h215v-190h-215zM828 1620v190h215v-190h-215z" />
<glyph unicode="&#xdd;" horiz-adv-x="1300" d="M25 1430h285l402 -689l378 689h275l-526 -930v-500h-265v500zM541 1551l144 259h319l-239 -259h-224z" />
<glyph unicode="&#xde;" horiz-adv-x="1278" d="M150 0v1430h274v-308h396q408 0 408 -363q0 -427 -589 -519l-38 236q350 65 350 275q0 138 -148 138h-388v-889h-265z" />
<glyph unicode="&#xdf;" horiz-adv-x="1216" d="M125 0v959q0 468 504 468q470 0 470 -377v-135q-304 -53 -304 -188q0 -71 185.5 -127.5t185.5 -267.5q0 -332 -424 -332h-212v210h214q147 0 147 102q0 101 -175.5 157.5t-175.5 254.5t288 326q0 167 -206 167q-232 0 -232 -261v-956h-265z" />
<glyph unicode="&#xe0;" horiz-adv-x="1135" d="M75 327q0 313 456 313q107 0 214 -20v79q0 141 -203 141q-172 0 -382 -50v210q210 50 382 50q468 0 468 -346v-704h-154l-94 94q-137 -94 -302 -94q-385 0 -385 327zM254 1430h319l144 -259h-224zM340 330q0 -140 160 -140q132 0 245 82v168q-100 20 -214 20 q-191 0 -191 -130z" />
<glyph unicode="&#xe1;" horiz-adv-x="1135" d="M75 327q0 313 456 313q107 0 214 -20v79q0 141 -203 141q-172 0 -382 -50v210q210 50 382 50q468 0 468 -346v-704h-154l-94 94q-137 -94 -302 -94q-385 0 -385 327zM340 330q0 -140 160 -140q132 0 245 82v168q-100 20 -214 20q-191 0 -191 -130zM398 1171l144 259h319 l-239 -259h-224z" />
<glyph unicode="&#xe2;" horiz-adv-x="1135" d="M75 327q0 313 456 313q107 0 214 -20v79q0 141 -203 141q-172 0 -382 -50v210q210 50 382 50q468 0 468 -346v-704h-154l-94 94q-137 -94 -302 -94q-385 0 -385 327zM313 1170l175 260h150l175 -260h-180l-70 130l-70 -130h-180zM340 330q0 -140 160 -140q132 0 245 82 v168q-100 20 -214 20q-191 0 -191 -130z" />
<glyph unicode="&#xe3;" horiz-adv-x="1135" d="M75 327q0 313 456 313q107 0 214 -20v79q0 141 -203 141q-172 0 -382 -50v210q210 50 382 50q468 0 468 -346v-704h-154l-94 94q-137 -94 -302 -94q-385 0 -385 327zM313 1174v210q60 46 130 46q52 0 110 -26t114 -26q75 0 146 46v-210q-60 -46 -130 -46q-52 0 -110 26 t-114 26q-75 0 -146 -46zM340 330q0 -140 160 -140q132 0 245 82v168q-100 20 -214 20q-191 0 -191 -130z" />
<glyph unicode="&#xe4;" horiz-adv-x="1135" d="M75 327q0 313 456 313q107 0 214 -20v79q0 141 -203 141q-172 0 -382 -50v210q210 50 382 50q468 0 468 -346v-704h-154l-94 94q-137 -94 -302 -94q-385 0 -385 327zM285 1240v190h215v-190h-215zM340 330q0 -140 160 -140q132 0 245 82v168q-100 20 -214 20 q-191 0 -191 -130zM625 1240v190h215v-190h-215z" />
<glyph unicode="&#xe5;" horiz-adv-x="1135" d="M75 327q0 313 456 313q107 0 214 -20v79q0 141 -203 141q-172 0 -382 -50v210q210 50 382 50q468 0 468 -346v-704h-154l-94 94q-137 -94 -302 -94q-385 0 -385 327zM332 1361q0 210 228 210q224 0 224 -210q0 -209 -224 -209q-228 0 -228 209zM340 330q0 -140 160 -140 q132 0 245 82v168q-100 20 -214 20q-191 0 -191 -130zM422 1363q0 -137 138 -137q134 0 134 137q0 134 -134 134q-138 0 -138 -134z" />
<glyph unicode="&#xe6;" horiz-adv-x="1745" d="M75 329q0 321 437 321q104 0 226 -22q0 212 -242 212q-170 0 -332 -48v205q168 53 334 53q299 0 396 -136q127 136 342 136q456 0 456 -467q0 -75 -12 -151h-677q0 -222 360 -222q148 0 285 29v-209q-146 -30 -341 -30q-275 0 -418 112q-193 -112 -398 -112 q-416 0 -416 329zM340 330q0 -140 150 -140q152 0 245 82v168q-110 20 -224 20q-171 0 -171 -130zM1001 616h448q-16 224 -210 224q-220 0 -238 -224z" />
<glyph unicode="&#xe7;" horiz-adv-x="950" d="M70 545q0 505 560 505q140 0 270 -30v-210q-130 30 -250 30q-315 0 -315 -295q0 -335 315 -335q120 0 250 30v-210q-130 -30 -270 -30h-24l-41 -77q214 0 214 -162q0 -183 -271 -183q-108 0 -216 50v128q108 -50 216 -50t108 55q0 44 -83 44h-183l103 211 q-383 79 -383 529z" />
<glyph unicode="&#xe8;" horiz-adv-x="1120" d="M75 537q0 513 493 513q478 0 478 -488q0 -65 -9 -130h-697q0 -222 326 -222q159 0 318 30v-210q-139 -30 -338 -30q-571 0 -571 537zM262 1430h319l144 -259h-224zM340 616h448v8q0 218 -220 218q-210 0 -228 -226z" />
<glyph unicode="&#xe9;" horiz-adv-x="1120" d="M75 537q0 513 493 513q478 0 478 -488q0 -65 -9 -130h-697q0 -222 326 -222q159 0 318 30v-210q-139 -30 -338 -30q-571 0 -571 537zM340 616h448v8q0 218 -220 218q-210 0 -228 -226zM416 1171l144 259h319l-239 -259h-224z" />
<glyph unicode="&#xea;" horiz-adv-x="1120" d="M75 537q0 513 493 513q478 0 478 -488q0 -65 -9 -130h-697q0 -222 326 -222q159 0 318 30v-210q-139 -30 -338 -30q-571 0 -571 537zM320 1170l175 260h150l175 -260h-180l-70 130l-70 -130h-180zM340 616h448v8q0 218 -220 218q-210 0 -228 -226z" />
<glyph unicode="&#xeb;" horiz-adv-x="1120" d="M75 537q0 513 493 513q478 0 478 -488q0 -65 -9 -130h-697q0 -222 326 -222q159 0 318 30v-210q-139 -30 -338 -30q-571 0 -571 537zM293 1240v190h215v-190h-215zM340 616h448v8q0 218 -220 218q-210 0 -228 -226zM633 1240v190h215v-190h-215z" />
<glyph unicode="&#xec;" horiz-adv-x="515" d="M-51 1430h319l144 -259h-224zM125 0v1050h265v-1050h-265z" />
<glyph unicode="&#xed;" horiz-adv-x="515" d="M103 1171l144 259h319l-239 -259h-224zM125 0v1050h265v-1050h-265z" />
<glyph unicode="&#xee;" horiz-adv-x="515" d="M8 1170l175 260h150l175 -260h-180l-70 130l-70 -130h-180zM126 0v1050h265v-1050h-265z" />
<glyph unicode="&#xef;" horiz-adv-x="515" d="M-20 1240v190h215v-190h-215zM125 0v1050h265v-1050h-265zM320 1240v190h215v-190h-215z" />
<glyph unicode="&#xf0;" horiz-adv-x="1180" d="M75 540q0 510 434 510q177 0 286 -90q-62 133 -174 198l-231 -97v119l76 32q-50 8 -105 8h-206v210h208q249 0 414 -88l210 88v-119l-102 -43q220 -193 220 -618q0 -660 -517 -660q-513 0 -513 550zM336 540q0 -340 253 -340q251 0 251 446q0 96 -18 154q-90 50 -234 50 q-252 0 -252 -310z" />
<glyph unicode="&#xf1;" horiz-adv-x="1205" d="M125 0v1050h205l33 -154q151 154 344 154q373 0 373 -388v-662h-265v662q0 174 -173 174q-129 0 -252 -103v-733h-265zM373 1174v210q60 46 130 46q52 0 110 -26t114 -26q75 0 146 46v-210q-60 -46 -130 -46q-52 0 -110 26t-114 26q-75 0 -146 -46z" />
<glyph unicode="&#xf2;" horiz-adv-x="1190" d="M75 525q0 528 520 528t520 -528q0 -527 -520 -527q-518 0 -520 527zM286 1430h319l144 -259h-224zM340 529q0 -329 255 -329t255 329q0 321 -255 321t-255 -321z" />
<glyph unicode="&#xf3;" horiz-adv-x="1190" d="M75 525q0 528 520 528t520 -528q0 -527 -520 -527q-518 0 -520 527zM340 529q0 -329 255 -329t255 329q0 321 -255 321t-255 -321zM441 1171l144 259h319l-239 -259h-224z" />
<glyph unicode="&#xf4;" horiz-adv-x="1190" d="M75 525q0 528 520 528t520 -528q0 -527 -520 -527q-518 0 -520 527zM340 529q0 -329 255 -329t255 329q0 321 -255 321t-255 -321zM345 1170l175 260h150l175 -260h-180l-70 130l-70 -130h-180z" />
<glyph unicode="&#xf5;" horiz-adv-x="1190" d="M75 525q0 528 520 528t520 -528q0 -527 -520 -527q-518 0 -520 527zM340 529q0 -329 255 -329t255 329q0 321 -255 321t-255 -321zM345 1174v210q60 46 130 46q52 0 110 -26t114 -26q75 0 146 46v-210q-60 -46 -130 -46q-52 0 -110 26t-114 26q-75 0 -146 -46z" />
<glyph unicode="&#xf6;" horiz-adv-x="1190" d="M75 525q0 528 520 528t520 -528q0 -527 -520 -527q-518 0 -520 527zM318 1240v190h215v-190h-215zM340 529q0 -329 255 -329t255 329q0 321 -255 321t-255 -321zM658 1240v190h215v-190h-215z" />
<glyph unicode="&#xf7;" horiz-adv-x="985" d="M100 420v210h785v-210h-785zM380 150v190h225v-190h-225zM380 710v190h225v-190h-225z" />
<glyph unicode="&#xf8;" horiz-adv-x="1180" d="M60 0l115 151q-109 132 -110 374q0 535 530 535q141 0 244 -38l21 28h258l-108 -142q115 -133 115 -383q0 -534 -530 -534q-147 0 -253 41l-25 -32h-257zM330 529q0 -87 18 -150l348 456q-44 15 -101 15q-265 0 -265 -321zM484 219q48 -19 111 -19q265 0 265 329 q0 90 -21 155z" />
<glyph unicode="&#xf9;" horiz-adv-x="1195" d="M125 381v669h265v-662q0 -174 152 -174q129 0 263 103v733h265v-1050h-207l-32 134q-181 -134 -384 -134q-322 0 -322 381zM289 1430h319l144 -259h-224z" />
<glyph unicode="&#xfa;" horiz-adv-x="1195" d="M125 381v669h265v-662q0 -174 152 -174q129 0 263 103v733h265v-1050h-207l-32 134q-181 -134 -384 -134q-322 0 -322 381zM443 1171l144 259h319l-239 -259h-224z" />
<glyph unicode="&#xfb;" horiz-adv-x="1195" d="M125 381v669h265v-662q0 -174 152 -174q129 0 263 103v733h265v-1050h-207l-32 134q-181 -134 -384 -134q-322 0 -322 381zM348 1170l175 260h150l175 -260h-180l-70 130l-70 -130h-180z" />
<glyph unicode="&#xfc;" horiz-adv-x="1195" d="M125 381v669h265v-662q0 -174 152 -174q129 0 263 103v733h265v-1050h-207l-32 134q-181 -134 -384 -134q-322 0 -322 381zM320 1240v190h215v-190h-215zM660 1240v190h215v-190h-215z" />
<glyph unicode="&#xfd;" horiz-adv-x="1081" d="M0 1050h281l265 -756l259 756h276l-436 -1081q-116 -286 -371 -407l-128 181q176 77 256 251zM386 1171l144 259h319l-239 -259h-224z" />
<glyph unicode="&#xfe;" horiz-adv-x="1177" d="M125 -380v1810h265v-406q87 26 197 26q515 0 515 -509q0 -541 -498 -541q-106 0 -214 50v-430h-265zM390 274q99 -54 213 -54q237 0 237 323q0 293 -262 293q-113 0 -188 -14v-548z" />
<glyph unicode="&#xff;" horiz-adv-x="1081" d="M0 1050h281l265 -756l259 756h276l-436 -1081q-116 -286 -371 -407l-128 181q176 77 256 251zM269 1240v190h215v-190h-215zM609 1240v190h215v-190h-215z" />
<glyph unicode="&#x152;" horiz-adv-x="2215" d="M100 713q0 717 718 717h1257v-230h-700q110 -112 140 -360h525v-230h-525q-21 -242 -131 -380h706v-230h-1272q-686 0 -718 713zM375 719q0 -489 443 -489q422 0 422 489q0 481 -422 481q-443 0 -443 -481z" />
<glyph unicode="&#x153;" horiz-adv-x="1859" d="M60 522q0 528 510 528q264 0 385 -169q118 169 367 169q468 0 468 -494q0 -63 -8 -134h-683q0 -212 362 -212q147 0 279 28v-206q-137 -32 -333 -32q-322 0 -451 146q-115 -146 -386 -146q-489 0 -510 522zM321 529q0 -319 255 -319t255 319q0 311 -255 311t-255 -311z M1106 616h428q-6 226 -210 226q-200 0 -218 -226z" />
<glyph unicode="&#x178;" horiz-adv-x="1300" d="M25 1430h285l402 -689l378 689h275l-526 -930v-500h-265v500zM417 1599v190h216v-190h-216zM757 1599v190h216v-190h-216z" />
<glyph unicode="&#x2c6;" horiz-adv-x="700" d="M100 1170l175 260h150l175 -260h-180l-70 130l-70 -130h-180z" />
<glyph unicode="&#x2dc;" horiz-adv-x="700" d="M100 1174v210q60 46 130 46q52 0 110 -26t114 -26q75 0 146 46v-210q-60 -46 -130 -46q-52 0 -110 26t-114 26q-75 0 -146 -46z" />
<glyph unicode="&#x2000;" horiz-adv-x="909" />
<glyph unicode="&#x2001;" horiz-adv-x="1819" />
<glyph unicode="&#x2002;" horiz-adv-x="909" />
<glyph unicode="&#x2003;" horiz-adv-x="1819" />
<glyph unicode="&#x2004;" horiz-adv-x="606" />
<glyph unicode="&#x2005;" horiz-adv-x="454" />
<glyph unicode="&#x2006;" horiz-adv-x="303" />
<glyph unicode="&#x2007;" horiz-adv-x="303" />
<glyph unicode="&#x2008;" horiz-adv-x="227" />
<glyph unicode="&#x2009;" horiz-adv-x="363" />
<glyph unicode="&#x200a;" horiz-adv-x="101" />
<glyph unicode="&#x2010;" horiz-adv-x="700" d="M100 420v210h500v-210h-500z" />
<glyph unicode="&#x2011;" horiz-adv-x="700" d="M100 420v210h500v-210h-500z" />
<glyph unicode="&#x2012;" horiz-adv-x="700" d="M100 420v210h500v-210h-500z" />
<glyph unicode="&#x2013;" horiz-adv-x="1200" d="M100 420v210h1000v-210h-1000z" />
<glyph unicode="&#x2014;" horiz-adv-x="1700" d="M100 420v210h1500v-210h-1500z" />
<glyph unicode="&#x2018;" horiz-adv-x="495" d="M50 995l150 435h245l-150 -435h-245z" />
<glyph unicode="&#x2019;" horiz-adv-x="495" d="M50 995l150 435h245l-150 -435h-245z" />
<glyph unicode="&#x201a;" horiz-adv-x="435" d="M50 -250l150 435h185l-150 -435h-185z" />
<glyph unicode="&#x201c;" horiz-adv-x="925" d="M50 995l150 435h245l-150 -435h-245zM480 995l150 435h245l-150 -435h-245z" />
<glyph unicode="&#x201d;" horiz-adv-x="925" d="M50 995l150 435h245l-150 -435h-245zM480 995l150 435h245l-150 -435h-245z" />
<glyph unicode="&#x201e;" horiz-adv-x="925" d="M50 -250l150 435h245l-150 -435h-245zM480 -250l150 435h245l-150 -435h-245z" />
<glyph unicode="&#x2022;" horiz-adv-x="630" d="M100 725q0 215 215 215t215 -215t-215 -215t-215 215z" />
<glyph unicode="&#x2026;" horiz-adv-x="1465" d="M100 0v245h265v-245h-265zM600 0v245h265v-245h-265zM1100 0v245h265v-245h-265z" />
<glyph unicode="&#x202f;" horiz-adv-x="363" />
<glyph unicode="&#x2039;" horiz-adv-x="630" d="M50 525l258 375h272l-258 -375l258 -375h-272z" />
<glyph unicode="&#x203a;" horiz-adv-x="630" d="M50 150l258 375l-258 375h272l258 -375l-258 -375h-272z" />
<glyph unicode="&#x205f;" horiz-adv-x="454" />
<glyph unicode="&#x20ac;" horiz-adv-x="1385" d="M100 735q0 705 750 705q215 0 400 -60v-240q-185 70 -380 70q-418 0 -485 -228h673v-210h-693v-70h693v-210h-673q57 -272 485 -272q195 0 380 70v-240q-185 -60 -400 -60q-750 0 -750 745z" />
<glyph unicode="&#x2122;" horiz-adv-x="1606" d="M150 1359v71h511v-71h-212v-602h-87v602h-212zM750 757v673h110l248 -561l242 561h106v-673h-78v543l-239 -543h-69l-243 543v-543h-77z" />
</font>
</defs>
</svg>
