<?xml version="1.0" standalone="no"?>
<!DOCTYPE svg PUBLIC "-//W3C//DTD SVG 1.1//EN" "http://www.w3.org/Graphics/SVG/1.1/DTD/svg11.dtd" >
<svg xmlns="http://www.w3.org/2000/svg">
<metadata></metadata>
<defs>
<font id="sansationregular" horiz-adv-x="1050" >
<font-face units-per-em="2048" ascent="1638" descent="-410" />
<missing-glyph horiz-adv-x="500" />
<glyph unicode="ffi" d="M0 0v1050h1050v-1050h-1050z" />
<glyph unicode="&#xfb01;" horiz-adv-x="1131" d="M150 0v1101q0 401 442 401q139 0 294 -60v-150q-149 60 -295 60q-256 0 -256 -233v-69h626v-1050h-185v900h-441v-900h-185z" />
<glyph unicode="&#xfb02;" horiz-adv-x="1184" d="M150 0v1101q0 401 492 401q179 0 382 -72v-1430h-185v1333q-110 19 -198 19q-306 0 -306 -243v-59h315v-150h-315v-900h-185z" />
<glyph horiz-adv-x="2048" />
<glyph horiz-adv-x="2048" />
<glyph unicode="&#xd;" horiz-adv-x="390" />
<glyph unicode=" "  horiz-adv-x="500" />
<glyph unicode="&#x09;" horiz-adv-x="500" />
<glyph unicode="&#xa0;" horiz-adv-x="500" />
<glyph unicode="!" horiz-adv-x="485" d="M150 0v185h185v-185h-185zM150 370v1060h185v-1060h-185z" />
<glyph unicode="&#x22;" horiz-adv-x="755" d="M100 1430h185l-30 -435h-125zM470 1430h185l-30 -435h-125z" />
<glyph unicode="#" horiz-adv-x="1893" d="M100 344l30 154h402l89 378h-401l30 154h412l100 395h180l-100 -395h378l102 400h180l-101 -400h392l-30 -154h-402l-89 -378h401l-30 -154h-412l-90 -349h-180l90 349h-378l-90 -349h-180l89 349h-392zM713 498h377l90 378h-377z" />
<glyph unicode="$" d="M100 940q0 276 369 298v192h175v-194q134 -10 266 -46v-160q-185 60 -373 60q-262 0 -262 -150q0 -140 165 -140h150q360 0 360 -310q0 -251 -306 -292v-198h-175v191q-166 5 -329 49v160q185 -60 374 -60q251 0 251 150q0 140 -175 140h-150q-340 0 -340 310z" />
<glyph unicode="%" horiz-adv-x="1422" d="M100 0l1017 1430h205l-1017 -1430h-205zM100 1180q0 260 278 260q274 0 274 -260q0 -259 -274 -259q-278 0 -278 259zM230 1182q0 -147 148 -147q144 0 144 147q0 144 -144 144q-148 0 -148 -144zM770 249q0 260 278 260q274 0 274 -260q0 -259 -274 -259 q-278 0 -278 259zM900 251q0 -147 148 -147q144 0 144 147q0 144 -144 144q-148 0 -148 -144z" />
<glyph unicode="&#x26;" horiz-adv-x="1275" d="M100 394q0 247 193 333q-193 85 -193 318q0 385 510 385q185 0 360 -50v-150q-175 50 -347 50q-338 0 -338 -230q0 -250 255 -250h388v142h63l102 -142h182v-150h-162v-160q0 -493 -518 -493q-495 0 -495 397zM285 399q0 -249 301 -249q342 0 342 342v158h-386 q-257 0 -257 -251z" />
<glyph unicode="'" horiz-adv-x="385" d="M100 1430h185l-30 -435h-125z" />
<glyph unicode="(" horiz-adv-x="585" d="M100 525q0 453 200 905h185q-200 -452 -200 -905t200 -905h-185q-200 452 -200 905z" />
<glyph unicode=")" horiz-adv-x="585" d="M100 -380q200 452 200 905t-200 905h185q200 -452 200 -905t-200 -905h-185z" />
<glyph unicode="*" horiz-adv-x="810" d="M100 1150l48 150l211 -103l-31 233h156l-30 -232l209 101l48 -147l-228 -43l159 -170l-123 -92l-113 205l-113 -204l-124 89l161 171z" />
<glyph unicode="+" horiz-adv-x="950" d="M100 450v150h300v300h150v-300h300v-150h-300v-300h-150v300h-300z" />
<glyph unicode="," horiz-adv-x="385" d="M25 -250l150 435h185l-150 -435h-185z" />
<glyph unicode="-" horiz-adv-x="700" d="M100 450v150h500v-150h-500z" />
<glyph unicode="." horiz-adv-x="385" d="M100 0v185h185v-185h-185z" />
<glyph unicode="/" horiz-adv-x="980" d="M25 0l725 1430h205l-725 -1430h-205z" />
<glyph unicode="0" horiz-adv-x="1445" d="M110 713q0 727 618 727q607 0 607 -727q0 -723 -607 -723q-618 0 -618 723zM305 719q0 -579 423 -579q412 0 412 579q0 571 -412 571q-423 0 -423 -571z" />
<glyph unicode="1" horiz-adv-x="645" d="M100 1251v89l335 100v-1440h-185v1251h-150z" />
<glyph unicode="2" horiz-adv-x="1145" d="M60 0v150q795 547 795 870q0 270 -340 270q-220 0 -415 -110v160q195 100 415 100q525 0 525 -420q0 -370 -715 -870h715v-150h-980z" />
<glyph unicode="3" horiz-adv-x="1150" d="M100 50v160q200 -70 400 -70q330 0 330 260q0 250 -252 250h-328v150h325q255 0 255 250q0 240 -330 240q-200 0 -400 -70v160q200 60 400 60q515 0 515 -390q0 -236 -188 -325q188 -85 188 -325q0 -410 -515 -410q-200 0 -400 60z" />
<glyph unicode="4" horiz-adv-x="1220" d="M60 340v150l575 940h194l-576 -940h559v508h185v-508l148 -76v-74h-148v-340h-185v340h-752z" />
<glyph unicode="5" horiz-adv-x="1175" d="M125 50v160q200 -70 400 -70q365 0 365 310q0 260 -355 260q-225 0 -410 -40l30 760h864v-150h-706l-24 -442q117 22 246 22q540 0 540 -410q0 -460 -560 -460q-190 0 -390 60z" />
<glyph unicode="6" horiz-adv-x="1260" d="M100 550q0 556 658 923l96 -127q-362 -176 -514 -479q131 53 316 53q514 0 514 -450q0 -480 -543 -480q-527 0 -527 560zM275 556q0 -416 361 -416q353 0 353 330q0 300 -342 300q-214 0 -344 -48q-28 -60 -28 -166z" />
<glyph unicode="7" horiz-adv-x="1090" d="M65 1280v150h950v-150l-602 -1280h-201l622 1280h-769z" />
<glyph unicode="8" horiz-adv-x="1240" d="M100 424q0 223 212 321q-172 105 -172 333q0 366 480 366t480 -366q0 -228 -177 -333q217 -98 217 -321q0 -434 -520 -434t-520 434zM285 418q0 -278 340 -278q330 0 330 278q0 252 -343 252q-327 0 -327 -252zM325 1058q0 -238 300 -238q290 0 290 238q0 232 -303 232 q-287 0 -287 -232z" />
<glyph unicode="9" horiz-adv-x="1260" d="M100 953q0 480 543 480q527 0 527 -560q0 -556 -658 -923l-96 127q362 176 514 479q-131 -63 -316 -63q-514 0 -514 460zM281 953q0 -300 342 -300q214 0 344 48q28 60 28 166q0 416 -361 416q-353 0 -353 -330z" />
<glyph unicode=":" horiz-adv-x="435" d="M150 0v185h185v-185h-185zM150 865v185h185v-185h-185z" />
<glyph unicode=";" horiz-adv-x="535" d="M100 -250l150 435h185l-150 -435h-185zM250 865v185h185v-185h-185z" />
<glyph unicode="&#x3c;" horiz-adv-x="1100" d="M100 450v150l900 400v-150l-743 -329l743 -321v-150z" />
<glyph unicode="=" horiz-adv-x="950" d="M100 300v150h750v-150h-750zM100 600v150h750v-150h-750z" />
<glyph unicode="&#x3e;" horiz-adv-x="1100" d="M100 50v150l743 321l-743 329v150l900 -400v-150z" />
<glyph unicode="?" horiz-adv-x="1115" d="M100 1230v150q210 50 400 50q515 0 515 -390t-497 -390h-83v-280h-185v430h265q315 0 315 240t-330 240q-190 0 -400 -50zM250 0v185h185v-185h-185z" />
<glyph unicode="@" horiz-adv-x="2150" d="M150 540q0 900 924 900q926 0 926 -900q0 -690 -427 -690q-241 0 -241 244q-147 -94 -332 -94q-375 0 -375 317q0 323 426 323q157 0 274 -20v109q0 171 -283 171q-162 0 -332 -50v150q170 50 332 50q468 0 468 -336v-626q0 -88 100 -88q205 0 205 540q0 750 -726 750 q-754 0 -754 -750q0 -770 685 -770v-150q-870 0 -870 920zM810 320q0 -170 190 -170q192 0 325 102v218q-110 20 -274 20q-241 0 -241 -170z" />
<glyph unicode="A" horiz-adv-x="1472" d="M25 0l607 1430h205l610 -1430h-205l-185 450h-473l51 150h360l-267 648l-511 -1248h-192z" />
<glyph unicode="B" horiz-adv-x="1330" d="M170 0v1430h610q408 0 408 -333q0 -244 -266 -349q284 -53 284 -325q0 -423 -447 -423h-589zM355 150h393q256 0 256 260q0 253 -343 253h-80v121q410 55 410 296q0 200 -228 200h-408v-1130z" />
<glyph unicode="C" horiz-adv-x="1385" d="M100 735q0 705 750 705q215 0 400 -60v-160q-185 70 -380 70q-585 0 -585 -555q0 -595 585 -595q195 0 380 70v-160q-185 -60 -400 -60q-750 0 -750 745z" />
<glyph unicode="D" horiz-adv-x="1500" d="M170 0v1430h520q710 0 710 -676q0 -754 -710 -754h-520zM355 150h335q525 0 525 604q0 526 -525 526h-335v-1130z" />
<glyph unicode="E" horiz-adv-x="1230" d="M170 0v1430h935v-150h-750v-480h715v-150h-715v-500h765v-150h-950z" />
<glyph unicode="F" horiz-adv-x="1155" d="M170 0v1430h935v-150h-750v-480h715v-150h-715v-650h-185z" />
<glyph unicode="G" horiz-adv-x="1385" d="M100 735q0 705 750 705q215 0 400 -60v-160q-185 70 -380 70q-585 0 -585 -555q0 -595 576 -595q92 0 204 24v486h185v-594q-173 -66 -373 -66q-777 0 -777 745z" />
<glyph unicode="H" horiz-adv-x="1555" d="M170 0v1430h185v-630h845v630h185v-1430h-185v650h-845v-650h-185z" />
<glyph unicode="I" horiz-adv-x="585" d="M200 0v1430h185v-1430h-185z" />
<glyph unicode="J" horiz-adv-x="690" d="M25 0v150q300 0 300 262v1018h185v-1018q0 -412 -485 -412z" />
<glyph unicode="K" horiz-adv-x="1400" d="M170 0v1430h185v-1430h-185zM535 688v112l592 630h234l-644 -675l658 -755h-257z" />
<glyph unicode="L" horiz-adv-x="1153" d="M170 0v1430h185v-1280h748v-150h-933z" />
<glyph unicode="M" horiz-adv-x="1840" d="M170 0v1430h235l525 -1193l515 1193h225v-1430h-165v1173l-508 -1173h-146l-516 1173v-1173h-165z" />
<glyph unicode="N" horiz-adv-x="1575" d="M170 0v1430h185l875 -1152v1152h175v-1430h-185l-875 1162v-1162h-175z" />
<glyph unicode="O" horiz-adv-x="1665" d="M120 713q0 727 718 727q707 0 707 -727q0 -723 -707 -723q-718 0 -718 723zM315 719q0 -579 523 -579q512 0 512 579q0 571 -512 571q-523 0 -523 -571z" />
<glyph unicode="P" horiz-adv-x="1263" d="M170 0v1430h580q438 0 438 -383q0 -417 -599 -509l-38 156q440 65 440 345q0 238 -258 238h-378v-1277h-185z" />
<glyph unicode="Q" horiz-adv-x="1665" d="M120 713q0 727 718 727q707 0 707 -727q0 -598 -485 -706l232 -270l-144 -108l-310 361q-718 0 -718 723zM315 719q0 -579 523 -579q512 0 512 579q0 571 -512 571q-523 0 -523 -571z" />
<glyph unicode="R" horiz-adv-x="1305" d="M170 0v1430h610q408 0 408 -343q0 -279 -399 -413l491 -674h-244l-455 643v121q410 65 410 315q0 198 -228 198h-408v-1277h-185z" />
<glyph unicode="S" horiz-adv-x="1290" d="M100 1030q0 410 575 410q250 0 465 -60v-170q-215 80 -465 80q-390 0 -390 -260q0 -230 264 -230h184q457 0 457 -390q0 -420 -554 -420q-261 0 -486 60v170q225 -80 486 -80q369 0 369 270q0 230 -272 230h-184q-449 0 -449 390z" />
<glyph unicode="T" horiz-adv-x="1185" d="M50 1280v150h1085v-150h-450v-1280h-185v1280h-450z" />
<glyph unicode="U" horiz-adv-x="1510" d="M160 552v878h185v-878q0 -412 410 -412t410 412v878h185v-878q0 -562 -595 -562t-595 562z" />
<glyph unicode="V" horiz-adv-x="1472" d="M25 1430h195l524 -1238l511 1238h192l-607 -1430h-205z" />
<glyph unicode="W" horiz-adv-x="1900" d="M50 1430h179l201 -1244l404 1244h185l433 -1244l227 1244h171l-269 -1430h-252l-404 1198l-391 -1198h-249z" />
<glyph unicode="X" horiz-adv-x="1410" d="M25 0l563 715l-563 715h225l450 -572l450 572h225l-562 -715l562 -715h-225l-450 572l-450 -572h-225z" />
<glyph unicode="Y" horiz-adv-x="1300" d="M25 1430h205l412 -747l418 747h215l-546 -930v-500h-185v500z" />
<glyph unicode="Z" horiz-adv-x="1330" d="M125 0v150l884 1130h-864v150h1060v-150l-857 -1130h837v-150h-1060z" />
<glyph unicode="[" horiz-adv-x="650" d="M150 -380v1810h450v-150h-265v-1510h265v-150h-450z" />
<glyph unicode="\" horiz-adv-x="980" d="M25 1430h205l725 -1430h-205z" />
<glyph unicode="]" horiz-adv-x="650" d="M50 -230h265v1510h-265v150h450v-1810h-450v150z" />
<glyph unicode="^" d="M50 700l400 730h150l400 -730h-150l-329 603l-321 -603h-150z" />
<glyph unicode="_" d="M25 0h1000v-150h-1000v150z" />
<glyph unicode="`" horiz-adv-x="603" d="M100 1430h239l164 -239h-164z" />
<glyph unicode="a" horiz-adv-x="1135" d="M100 317q0 323 426 323q137 0 274 -20v99q0 181 -283 181q-162 0 -332 -50v150q170 50 332 50q468 0 468 -326v-724h-104l-64 104q-157 -104 -342 -104q-375 0 -375 317zM285 320q0 -170 190 -170q192 0 325 102v218q-137 20 -274 20q-241 0 -241 -170z" />
<glyph unicode="b" horiz-adv-x="1188" d="M150 43v1387h185v-430q119 50 255 50q498 0 498 -504q0 -546 -523 -546q-226 0 -415 43zM335 183q91 -29 221 -29q350 0 350 399q0 337 -317 337q-144 0 -254 -54v-653z" />
<glyph unicode="c" horiz-adv-x="1025" d="M100 545q0 505 560 505q150 0 280 -30v-150q-130 30 -290 30q-365 0 -365 -355q0 -395 365 -395q160 0 290 30v-150q-130 -30 -280 -30q-560 0 -560 545z" />
<glyph unicode="d" horiz-adv-x="1190" d="M100 546q0 504 498 504q136 0 257 -50v430h185v-1367q-191 -63 -471 -63q-469 0 -469 546zM282 553q0 -399 317 -399q144 0 256 39v643q-112 54 -256 54q-317 0 -317 -337z" />
<glyph unicode="e" horiz-adv-x="1130" d="M100 537q0 513 483 513q448 0 448 -443q0 -63 -9 -135h-737q0 -322 376 -322q179 0 318 40v-150q-139 -40 -338 -40q-541 0 -541 537zM285 626h568q-6 276 -270 276q-280 0 -298 -276z" />
<glyph unicode="f" horiz-adv-x="711" d="M150 0v1101q0 381 432 381q119 0 224 -40v-150q-99 40 -225 40q-246 0 -246 -223v-59h325v-150h-325v-900h-185z" />
<glyph unicode="g" horiz-adv-x="1187" d="M100 531q0 519 525 519q213 0 412 -43v-1007q0 -380 -483 -380q-194 0 -344 50v150q153 -50 346 -50q296 0 296 230v50q-118 -50 -254 -50q-498 0 -498 531zM282 533q0 -373 317 -373q144 0 253 54v658q-95 24 -235 24q-335 0 -335 -363z" />
<glyph unicode="h" horiz-adv-x="1205" d="M150 0v1430h185v-494q134 114 327 114q393 0 393 -391v-659h-185v662q0 234 -233 234q-159 0 -302 -133v-763h-185z" />
<glyph unicode="i" horiz-adv-x="525" d="M170 0v1050h185v-1050h-185zM170 1255v175h185v-175h-185z" />
<glyph unicode="j" horiz-adv-x="525" d="M45 -293q125 135 125 373v970h185v-970q0 -318 -155 -478zM170 1255v175h185v-175h-185z" />
<glyph unicode="k" horiz-adv-x="1181" d="M150 0v1430h185v-462q153 82 353 82q392 0 392 -303q0 -220 -300 -304l336 -443h-234l-334 445v83q347 31 347 220q0 152 -220 152q-173 0 -340 -94v-806h-185z" />
<glyph unicode="l" horiz-adv-x="505" d="M160 0v1430h185v-1430h-185z" />
<glyph unicode="m" horiz-adv-x="1805" d="M150 0v1050h125l31 -132q151 132 329 132q228 0 311 -144q171 144 347 144q362 0 362 -399v-651h-185v661q0 235 -198 235q-148 0 -277 -136v-760h-185v658q0 238 -196 238q-156 0 -279 -136v-760h-185z" />
<glyph unicode="n" horiz-adv-x="1205" d="M150 0v1050h125l33 -134q161 134 354 134q393 0 393 -391v-659h-185v662q0 234 -233 234q-159 0 -302 -133v-763h-185z" />
<glyph unicode="o" horiz-adv-x="1200" d="M100 525q0 525 500 525t500 -525q0 -524 -500 -524q-498 0 -500 524zM285 529q0 -379 315 -379t315 379q0 371 -315 371t-315 -371z" />
<glyph unicode="p" horiz-adv-x="1187" d="M150 -380v1387q209 43 432 43q505 0 505 -499q0 -551 -508 -551q-126 0 -244 50v-430h-185zM335 214q109 -54 243 -54q327 0 327 393q0 343 -325 343q-140 0 -245 -24v-658z" />
<glyph unicode="q" horiz-adv-x="1187" d="M100 531q0 519 525 519q213 0 412 -43v-1387h-185v430q-118 -50 -254 -50q-498 0 -498 531zM282 533q0 -373 317 -373q144 0 253 54v658q-95 24 -235 24q-335 0 -335 -363z" />
<glyph unicode="r" horiz-adv-x="675" d="M150 0v1050h125l33 -134q138 134 332 134v-154q-188 0 -305 -133v-763h-185z" />
<glyph unicode="s" d="M100 750q0 300 437 300q188 0 373 -50v-160q-185 60 -373 60q-262 0 -262 -150q0 -140 165 -140h150q360 0 360 -310q0 -300 -436 -300q-189 0 -374 50v160q185 -60 374 -60q251 0 251 150q0 140 -175 140h-150q-340 0 -340 310z" />
<glyph unicode="t" horiz-adv-x="675" d="M150 283v937h116l40 -170h284v-150h-255v-603q0 -147 127 -147h128v-150h-176q-264 0 -264 283z" />
<glyph unicode="u" horiz-adv-x="1205" d="M150 391v659h185v-662q0 -234 232 -234q159 0 303 133v763h185v-1050h-127l-32 134q-191 -134 -384 -134q-362 0 -362 391z" />
<glyph unicode="v" horiz-adv-x="1000" d="M0 1050h200l301 -823l299 823h200l-427 -1050h-172z" />
<glyph unicode="w" horiz-adv-x="1539" d="M35 1050h187l186 -823l273 823h167l292 -823l168 823h196l-274 -1050h-169l-301 785l-286 -785h-173z" />
<glyph unicode="x" d="M25 0l393 525l-393 525h215l285 -381l285 381h215l-392 -525l392 -525h-215l-285 381l-285 -381h-215z" />
<glyph unicode="y" d="M25 1050h201l297 -820l307 820h196l-436 -1081q-116 -286 -348 -357l-71 131q176 77 256 251z" />
<glyph unicode="z" horiz-adv-x="1040" d="M100 0v140l635 760h-615v150h820v-150l-627 -760h607v-140h-820z" />
<glyph unicode="{" horiz-adv-x="675" d="M100 450v150q210 0 210 352q0 302 130 478h185q-130 -176 -130 -478q0 -352 -210 -427q210 -75 210 -427q0 -302 130 -478h-185q-130 176 -130 478q0 352 -210 352z" />
<glyph unicode="|" horiz-adv-x="485" d="M150 -380v1810h185v-1810h-185z" />
<glyph unicode="}" horiz-adv-x="675" d="M50 -380q130 176 130 478q0 352 210 427q-210 75 -210 427q0 302 -130 478h185q130 -176 130 -478q0 -352 210 -352v-150q-210 0 -210 -352q0 -302 -130 -478h-185z" />
<glyph unicode="~" horiz-adv-x="950" d="M100 430v150q58 61 162 61q86 0 203 -41q117 -40 207 -40q109 0 178 60v-150q-58 -60 -162 -60q-86 0 -203 40q-117 41 -207 41q-109 0 -178 -61z" />
<glyph unicode="&#xa1;" horiz-adv-x="485" d="M150 -380v1060h185v-1060h-185zM150 865v185h185v-185h-185z" />
<glyph unicode="&#xa2;" d="M100 735q0 459 470 501v194h175v-192q108 -6 205 -28v-150q-130 30 -260 30q-405 0 -405 -355q0 -395 405 -395q130 0 260 30v-150q-97 -22 -205 -28v-192h-175v195q-470 45 -470 540z" />
<glyph unicode="&#xa3;" horiz-adv-x="1217" d="M100 -30v152q186 75 186 291q0 117 -77 291t-77 323q0 413 558 413q270 0 427 -100v-180q-158 130 -434 130q-354 0 -354 -261q0 -144 45 -229h376v-150h-324q49 -134 49 -234q0 -137 -64 -238q22 4 51 4q91 0 251 -43q61 -17 121 -17q145 0 283 98v-170 q-120 -84 -284 -84q-94 0 -201 28q-129 32 -246 32q-153 0 -286 -56z" />
<glyph unicode="&#xa4;" horiz-adv-x="1139" d="M100 173l116 120q-57 103 -57 232q0 137 57 231l-116 120l109 112l125 -121q108 68 242 68q124 0 225 -68l128 121l110 -112l-118 -120q58 -83 58 -231q0 -139 -68 -232l128 -120l-110 -112l-128 123q-108 -60 -233 -60q-124 0 -243 60l-116 -123zM322 529 q0 -246 245 -246t245 246q0 244 -245 244t-245 -244z" />
<glyph unicode="&#xa5;" horiz-adv-x="1250" d="M50 1430h205l362 -627l368 627h215l-433 -700h313v-150h-376v-111h376v-150h-376v-319h-185v319h-349v150h349v111h-349v150h287z" />
<glyph unicode="&#xa6;" horiz-adv-x="485" d="M150 350h185v-730h-185v730zM150 700v730h184v-730h-184z" />
<glyph unicode="&#xa7;" d="M100 720q0 138 122 196q-122 80 -122 224q0 300 457 300q168 0 343 -50v-160q-175 60 -343 60q-292 0 -292 -150q0 -130 195 -130h110q380 0 380 -297q0 -130 -120 -202q120 -64 120 -221q0 -300 -436 -300q-189 0 -364 50v160q175 -60 364 -60q251 0 251 150 q0 130 -195 130h-110q-360 0 -360 300zM275 717q0 -149 195 -149h110q195 0 195 136q0 157 -195 157h-110q-195 0 -195 -144z" />
<glyph unicode="&#xa8;" horiz-adv-x="755" d="M100 1260v170h185v-170h-185zM470 1260v170h185v-170h-185z" />
<glyph unicode="&#xa9;" horiz-adv-x="1785" d="M150 723q0 717 748 717q737 0 737 -717q0 -733 -737 -733q-748 0 -748 733zM255 719q0 -639 623 -639q652 0 652 639q0 631 -632 631q-643 0 -643 -631zM477 728q0 416 416 416q165 0 290 -51v-98q-125 58 -276 58q-325 0 -325 -325q0 -352 325 -352q151 0 276 58v-98 q-125 -51 -290 -51q-416 0 -416 443z" />
<glyph unicode="&#xaa;" horiz-adv-x="642" d="M100 1069q0 161 213 161q79 0 137 -10v50q0 86 -142 86q-80 0 -166 -26v76q86 24 166 24q234 0 234 -168v-356h-46l-38 36q-68 -36 -160 -36q-198 0 -198 163zM192 1070q0 -90 106 -90q96 0 152 42v124q-55 10 -137 10q-121 0 -121 -86z" />
<glyph unicode="&#xab;" horiz-adv-x="1009" d="M100 525l258 375h202l-258 -375l258 -375h-202zM499 525l258 375h202l-258 -375l258 -375h-202z" />
<glyph unicode="&#xac;" horiz-adv-x="1085" d="M100 900v150h885v-400h-150v250h-735z" />
<glyph unicode="&#xad;" horiz-adv-x="700" d="M100 450v150h500v-150h-500z" />
<glyph unicode="&#xae;" horiz-adv-x="1163" d="M150 1023q0 427 430 427q433 0 433 -427q0 -415 -433 -415q-418 0 -430 415zM223 1025q0 -361 357 -361q360 0 360 361q0 369 -360 369q-357 0 -357 -369zM404 756v536h229q153 0 153 -128q0 -105 -150 -155l184 -253h-91l-171 241v45q154 25 154 119q0 74 -86 74h-153 v-479h-69z" />
<glyph unicode="&#xaf;" horiz-adv-x="700" d="M100 1280v150h500v-150h-500z" />
<glyph unicode="&#xb0;" horiz-adv-x="752" d="M100 1170q0 260 278 260q274 0 274 -260q0 -259 -274 -259q-278 0 -278 259zM230 1172q0 -147 148 -147q144 0 144 147q0 144 -144 144q-148 0 -148 -144z" />
<glyph unicode="&#xb1;" horiz-adv-x="950" d="M100 0v150h750v-150h-750zM100 600v150h300v300h150v-300h300v-150h-300v-300h-150v300h-300z" />
<glyph unicode="&#xb2;" horiz-adv-x="590" d="M50 710v135q337 213 337 365q0 85 -110 85t-207 -55v140q97 50 207 50q263 0 263 -220q0 -175 -287 -365h287v-135h-490z" />
<glyph unicode="&#xb3;" horiz-adv-x="578" d="M50 736v140q100 -36 200 -36q126 0 126 90q0 76 -86 76h-164v134h162q88 0 88 76q0 80 -126 80q-100 0 -200 -36v140q100 30 200 30q278 0 278 -214q0 -98 -94 -143q94 -43 94 -143q0 -224 -278 -224q-100 0 -200 30z" />
<glyph unicode="&#xb4;" horiz-adv-x="603" d="M100 1191l164 239h239l-239 -239h-164z" />
<glyph unicode="&#xb6;" horiz-adv-x="953" d="M0 986q0 444 443 444h510v-90h-150v-1774h-100v1774h-160v-1774h-100v972q-443 0 -443 448z" />
<glyph unicode="&#xb7;" horiz-adv-x="450" d="M100 525q0 125 125 125t125 -125t-125 -125t-125 125z" />
<glyph unicode="&#xb8;" horiz-adv-x="457" d="M0 -264q108 -50 216 -50t108 65q0 64 -83 64h-183l131 260h135l-81 -152q214 0 214 -172q0 -173 -241 -173q-108 0 -216 50v108z" />
<glyph unicode="&#xb9;" horiz-adv-x="328" d="M50 1261v75l228 90v-716h-152v551h-76z" />
<glyph unicode="&#xba;" horiz-adv-x="700" d="M100 1168q0 262 250 262t250 -262t-250 -262q-248 0 -250 262zM193 1170q0 -190 157 -190q158 0 158 190q0 186 -158 186q-157 0 -157 -186z" />
<glyph unicode="&#xbb;" horiz-adv-x="1009" d="M50 150l258 375l-258 375h202l258 -375l-258 -375h-202zM449 150l258 375l-258 375h202l258 -375l-258 -375h-202z" />
<glyph unicode="&#xbc;" horiz-adv-x="1449" d="M100 0l885 1430h185l-885 -1430h-185zM124 1261v75l227 90v-716h-153v551h-74zM872 26v140q100 -36 200 -36q124 0 124 90q0 76 -86 76h-164v134h163q87 0 87 76q0 80 -124 80q-100 0 -200 -36v140q100 30 200 30q277 0 277 -214q0 -98 -94 -143q94 -43 94 -143 q0 -224 -277 -224q-100 0 -200 30z" />
<glyph unicode="&#xbd;" horiz-adv-x="1442" d="M100 0l885 1430h185l-885 -1430h-185zM124 1261v75l227 90v-716h-153v551h-74zM852 0v135q338 213 338 365q0 85 -110 85t-208 -55v140q98 50 208 50q262 0 262 -220q0 -175 -288 -365h288v-135h-490z" />
<glyph unicode="&#xbe;" horiz-adv-x="1490" d="M100 736v140q100 -36 200 -36q124 0 124 90q0 76 -86 76h-164v134h163q87 0 87 76q0 80 -124 80q-100 0 -200 -36v140q100 30 200 30q277 0 277 -214q0 -98 -94 -143q94 -43 94 -143q0 -224 -277 -224q-100 0 -200 30zM191 0l885 1430h185l-885 -1430h-185zM822 150v134 l218 430h162l-213 -430h175v264h152v-264l74 -38v-96h-74v-150h-152v150h-342z" />
<glyph unicode="&#xbf;" horiz-adv-x="1115" d="M100 10q0 390 497 390h83v280h185v-430h-265q-315 0 -315 -240t330 -240q190 0 400 50v-150q-210 -50 -400 -50q-515 0 -515 390zM680 865v185h185v-185h-185z" />
<glyph unicode="&#xc0;" horiz-adv-x="1472" d="M25 0l607 1430h205l610 -1430h-205l-185 450h-473l51 150h360l-267 648l-511 -1248h-192zM467 1810h239l164 -239h-164z" />
<glyph unicode="&#xc1;" horiz-adv-x="1472" d="M25 0l607 1430h205l610 -1430h-205l-185 450h-473l51 150h360l-267 648l-511 -1248h-192zM602 1571l164 239h239l-239 -239h-164z" />
<glyph unicode="&#xc2;" horiz-adv-x="1472" d="M25 0l607 1430h205l610 -1430h-205l-185 450h-473l51 150h360l-267 648l-511 -1248h-192zM486 1550l175 260h150l175 -260h-150l-100 160l-100 -160h-150z" />
<glyph unicode="&#xc3;" horiz-adv-x="1472" d="M25 0l607 1430h205l610 -1430h-205l-185 450h-473l51 150h360l-267 648l-511 -1248h-192zM486 1614v150q60 46 130 46q52 0 110 -26t114 -26q75 0 146 46v-150q-60 -46 -130 -46q-52 0 -110 26t-114 26q-75 0 -146 -46z" />
<glyph unicode="&#xc4;" horiz-adv-x="1472" d="M25 0l607 1430h205l610 -1430h-205l-185 450h-473l51 150h360l-267 648l-511 -1248h-192zM459 1640v170h185v-170h-185zM829 1640v170h185v-170h-185z" />
<glyph unicode="&#xc5;" horiz-adv-x="1472" d="M25 0l607 1430h3q-125 40 -125 195q0 210 228 210q224 0 224 -210q0 -156 -125 -196l610 -1429h-205l-185 450h-473l51 150h360l-267 648l-511 -1248h-192zM600 1627q0 -137 138 -137q134 0 134 137q0 134 -134 134q-138 0 -138 -134z" />
<glyph unicode="&#xc6;" horiz-adv-x="1925" d="M25 0l607 1430h1148v-150h-888l210 -480h643v-150h-574l226 -500h403v-150h-548l-524 1238l-266 -638h350l58 -150h-459l-194 -450h-192z" />
<glyph unicode="&#xc7;" horiz-adv-x="1385" d="M100 735q0 705 750 705q215 0 400 -60v-160q-185 70 -380 70q-585 0 -585 -555q0 -595 585 -595q195 0 380 70v-160q-185 -60 -400 -60h-16l-36 -67q214 0 214 -172q0 -173 -241 -173q-108 0 -216 50v108q108 -50 216 -50t108 65q0 64 -83 64h-183l92 183 q-605 68 -605 737z" />
<glyph unicode="&#xc8;" horiz-adv-x="1230" d="M170 0v1430h935v-150h-750v-480h715v-150h-715v-500h765v-150h-950zM376 1810h239l164 -239h-164z" />
<glyph unicode="&#xc9;" horiz-adv-x="1230" d="M170 0v1430h935v-150h-750v-480h715v-150h-715v-500h765v-150h-950zM511 1571l164 239h239l-239 -239h-164z" />
<glyph unicode="&#xca;" horiz-adv-x="1230" d="M170 0v1430h935v-150h-750v-480h715v-150h-715v-500h765v-150h-950zM395 1550l175 260h150l175 -260h-150l-100 160l-100 -160h-150z" />
<glyph unicode="&#xcb;" horiz-adv-x="1230" d="M170 0v1430h935v-150h-750v-480h715v-150h-715v-500h765v-150h-950zM368 1640v170h185v-170h-185zM738 1640v170h185v-170h-185z" />
<glyph unicode="&#xcc;" horiz-adv-x="585" d="M24 1810h239l164 -239h-164zM200 0v1430h185v-1430h-185z" />
<glyph unicode="&#xcd;" horiz-adv-x="585" d="M158 1571l164 239h239l-239 -239h-164zM200 0v1430h185v-1430h-185z" />
<glyph unicode="&#xce;" horiz-adv-x="585" d="M43 1550l175 260h150l175 -260h-150l-100 160l-100 -160h-150zM201 0v1430h185v-1430h-185z" />
<glyph unicode="&#xcf;" horiz-adv-x="585" d="M15 1640v170h185v-170h-185zM200 0v1430h185v-1430h-185zM385 1640v170h185v-170h-185z" />
<glyph unicode="&#xd0;" horiz-adv-x="1500" d="M-30 650v150h200v630h520q710 0 710 -676q0 -754 -710 -754h-520v650h-200zM355 150h335q525 0 525 604q0 526 -525 526h-335v-480h365v-150h-365v-500z" />
<glyph unicode="&#xd1;" horiz-adv-x="1575" d="M170 0v1430h185l875 -1152v1152h175v-1430h-185l-875 1162v-1162h-175zM538 1614v150q60 46 130 46q52 0 110 -26t114 -26q75 0 146 46v-150q-60 -46 -130 -46q-52 0 -110 26t-114 26q-75 0 -146 -46z" />
<glyph unicode="&#xd2;" horiz-adv-x="1665" d="M120 713q0 727 718 727q707 0 707 -727q0 -723 -707 -723q-718 0 -718 723zM315 719q0 -579 523 -579q512 0 512 579q0 571 -512 571q-523 0 -523 -571zM564 1810h239l164 -239h-164z" />
<glyph unicode="&#xd3;" horiz-adv-x="1665" d="M120 713q0 727 718 727q707 0 707 -727q0 -723 -707 -723q-718 0 -718 723zM315 719q0 -579 523 -579q512 0 512 579q0 571 -512 571q-523 0 -523 -571zM698 1571l164 239h239l-239 -239h-164z" />
<glyph unicode="&#xd4;" horiz-adv-x="1665" d="M120 713q0 727 718 727q707 0 707 -727q0 -723 -707 -723q-718 0 -718 723zM315 719q0 -579 523 -579q512 0 512 579q0 571 -512 571q-523 0 -523 -571zM583 1550l175 260h150l175 -260h-150l-100 160l-100 -160h-150z" />
<glyph unicode="&#xd5;" horiz-adv-x="1665" d="M120 713q0 727 718 727q707 0 707 -727q0 -723 -707 -723q-718 0 -718 723zM315 719q0 -579 523 -579q512 0 512 579q0 571 -512 571q-523 0 -523 -571zM583 1614v150q60 46 130 46q52 0 110 -26t114 -26q75 0 146 46v-150q-60 -46 -130 -46q-52 0 -110 26t-114 26 q-75 0 -146 -46z" />
<glyph unicode="&#xd6;" horiz-adv-x="1665" d="M120 713q0 727 718 727q707 0 707 -727q0 -723 -707 -723q-718 0 -718 723zM315 719q0 -579 523 -579q512 0 512 579q0 571 -512 571q-523 0 -523 -571zM555 1640v170h185v-170h-185zM925 1640v170h185v-170h-185z" />
<glyph unicode="&#xd7;" horiz-adv-x="950" d="M100 313l212 212l-212 212l106 106l212 -212l212 212l106 -106l-212 -212l212 -212l-106 -106l-212 212l-212 -212z" />
<glyph unicode="&#xd8;" horiz-adv-x="1625" d="M100 713q0 727 718 727q228 0 383 -76l50 66h198l-118 -155q194 -182 194 -562q0 -723 -707 -723q-240 0 -399 81l-54 -71h-197l122 161q-190 180 -190 552zM295 719q0 -264 109 -408l695 918q-113 61 -281 61q-523 0 -523 -571zM522 207q118 -67 296 -67q512 0 512 579 q0 266 -111 408z" />
<glyph unicode="&#xd9;" horiz-adv-x="1510" d="M160 552v878h185v-878q0 -412 410 -412t410 412v878h185v-878q0 -562 -595 -562t-595 562zM486 1810h239l164 -239h-164z" />
<glyph unicode="&#xda;" horiz-adv-x="1510" d="M160 552v878h185v-878q0 -412 410 -412t410 412v878h185v-878q0 -562 -595 -562t-595 562zM621 1571l164 239h239l-239 -239h-164z" />
<glyph unicode="&#xdb;" horiz-adv-x="1510" d="M160 552v878h185v-878q0 -412 410 -412t410 412v878h185v-878q0 -562 -595 -562t-595 562zM505 1550l175 260h150l175 -260h-150l-100 160l-100 -160h-150z" />
<glyph unicode="&#xdc;" horiz-adv-x="1510" d="M160 552v878h185v-878q0 -412 410 -412t410 412v878h185v-878q0 -562 -595 -562t-595 562zM478 1640v170h185v-170h-185zM848 1640v170h185v-170h-185z" />
<glyph unicode="&#xdd;" horiz-adv-x="1300" d="M25 1430h205l412 -747l418 747h215l-546 -930v-500h-185v500zM516 1571l164 239h239l-239 -239h-164z" />
<glyph unicode="&#xde;" horiz-adv-x="1243" d="M150 0v1430h185v-308h425q408 0 408 -343q0 -387 -569 -479l-38 156q410 65 410 315q0 198 -228 198h-408v-969h-185z" />
<glyph unicode="&#xdf;" horiz-adv-x="1191" d="M150 0v959q0 468 464 468q430 0 430 -377v-85q-304 -103 -304 -238q0 -91 185.5 -162.5t185.5 -262.5q0 -302 -394 -302h-182v150h184q197 0 197 152q0 101 -175.5 162.5t-175.5 259.5q0 208 288 326q0 227 -246 227q-272 0 -272 -321v-956h-185z" />
<glyph unicode="&#xe0;" horiz-adv-x="1135" d="M100 317q0 323 426 323q137 0 274 -20v99q0 181 -283 181q-162 0 -332 -50v150q170 50 332 50q468 0 468 -326v-724h-104l-64 104q-157 -104 -342 -104q-375 0 -375 317zM285 320q0 -170 190 -170q192 0 325 102v218q-137 20 -274 20q-241 0 -241 -170zM294 1430h239 l164 -239h-164z" />
<glyph unicode="&#xe1;" horiz-adv-x="1135" d="M100 317q0 323 426 323q137 0 274 -20v99q0 181 -283 181q-162 0 -332 -50v150q170 50 332 50q468 0 468 -326v-724h-104l-64 104q-157 -104 -342 -104q-375 0 -375 317zM285 320q0 -170 190 -170q192 0 325 102v218q-137 20 -274 20q-241 0 -241 -170zM408 1191l164 239 h239l-239 -239h-164z" />
<glyph unicode="&#xe2;" horiz-adv-x="1135" d="M100 317q0 323 426 323q137 0 274 -20v99q0 181 -283 181q-162 0 -332 -50v150q170 50 332 50q468 0 468 -326v-724h-104l-64 104q-157 -104 -342 -104q-375 0 -375 317zM285 320q0 -170 190 -170q192 0 325 102v218q-137 20 -274 20q-241 0 -241 -170zM323 1170l175 260 h150l175 -260h-150l-100 160l-100 -160h-150z" />
<glyph unicode="&#xe3;" horiz-adv-x="1135" d="M100 317q0 323 426 323q137 0 274 -20v99q0 181 -283 181q-162 0 -332 -50v150q170 50 332 50q468 0 468 -326v-724h-104l-64 104q-157 -104 -342 -104q-375 0 -375 317zM285 320q0 -170 190 -170q192 0 325 102v218q-137 20 -274 20q-241 0 -241 -170zM293 1234v150 q60 46 130 46q52 0 110 -26t114 -26q75 0 146 46v-150q-60 -46 -130 -46q-52 0 -110 26t-114 26q-75 0 -146 -46z" />
<glyph unicode="&#xe4;" horiz-adv-x="1135" d="M100 317q0 323 426 323q137 0 274 -20v99q0 181 -283 181q-162 0 -332 -50v150q170 50 332 50q468 0 468 -326v-724h-104l-64 104q-157 -104 -342 -104q-375 0 -375 317zM285 320q0 -170 190 -170q192 0 325 102v218q-137 20 -274 20q-241 0 -241 -170zM285 1260v170h185 v-170h-185zM655 1260v170h185v-170h-185z" />
<glyph unicode="&#xe5;" horiz-adv-x="1135" d="M100 317q0 323 426 323q137 0 274 -20v99q0 181 -283 181q-162 0 -332 -50v150q170 50 332 50q468 0 468 -326v-724h-104l-64 104q-157 -104 -342 -104q-375 0 -375 317zM285 320q0 -170 190 -170q192 0 325 102v218q-137 20 -274 20q-241 0 -241 -170zM337 1361 q0 210 228 210q224 0 224 -210q0 -209 -224 -209q-228 0 -228 209zM427 1363q0 -137 138 -137q134 0 134 137q0 134 -134 134q-138 0 -138 -134z" />
<glyph unicode="&#xe6;" horiz-adv-x="1833" d="M100 317q0 323 426 323q137 0 274 -20v99q0 181 -283 181q-162 0 -332 -50v150q170 50 332 50q296 0 405 -130q121 130 364 130q448 0 448 -443q0 -63 -9 -135h-737q0 -322 376 -322q169 0 318 40v-150q-139 -40 -338 -40q-280 0 -421 148q-223 -148 -448 -148 q-375 0 -375 317zM285 320q0 -170 190 -170q192 0 325 102v218q-137 20 -274 20q-241 0 -241 -170zM988 626h568q-6 276 -270 276q-280 0 -298 -276z" />
<glyph unicode="&#xe7;" horiz-adv-x="1025" d="M100 545q0 505 570 505q150 0 280 -30v-150q-130 30 -260 30q-405 0 -405 -355q0 -395 405 -395q130 0 260 30v-150q-130 -30 -280 -30h-12l-41 -77q214 0 214 -172q0 -173 -241 -173q-108 0 -216 50v108q108 -50 216 -50t108 65q0 64 -83 64h-183l98 194 q-430 63 -430 536z" />
<glyph unicode="&#xe8;" horiz-adv-x="1130" d="M100 537q0 513 483 513q448 0 448 -443q0 -63 -9 -135h-737q0 -322 376 -322q179 0 318 40v-150q-139 -40 -338 -40q-541 0 -541 537zM285 626h568q-6 276 -270 276q-280 0 -298 -276zM297 1430h239l164 -239h-164z" />
<glyph unicode="&#xe9;" horiz-adv-x="1130" d="M100 537q0 513 483 513q448 0 448 -443q0 -63 -9 -135h-737q0 -322 376 -322q179 0 318 40v-150q-139 -40 -338 -40q-541 0 -541 537zM285 626h568q-6 276 -270 276q-280 0 -298 -276zM431 1191l164 239h239l-239 -239h-164z" />
<glyph unicode="&#xea;" horiz-adv-x="1130" d="M100 537q0 513 483 513q448 0 448 -443q0 -63 -9 -135h-737q0 -322 376 -322q179 0 318 40v-150q-139 -40 -338 -40q-541 0 -541 537zM285 626h568q-6 276 -270 276q-280 0 -298 -276zM325 1170l175 260h150l175 -260h-150l-100 160l-100 -160h-150z" />
<glyph unicode="&#xeb;" horiz-adv-x="1130" d="M100 537q0 513 483 513q448 0 448 -443q0 -63 -9 -135h-737q0 -322 376 -322q179 0 318 40v-150q-139 -40 -338 -40q-541 0 -541 537zM285 626h568q-6 276 -270 276q-280 0 -298 -276zM298 1260v170h185v-170h-185zM668 1260v170h185v-170h-185z" />
<glyph unicode="&#xec;" horiz-adv-x="525" d="M-6 1430h239l164 -239h-164zM170 0v1050h185v-1050h-185z" />
<glyph unicode="&#xed;" horiz-adv-x="525" d="M128 1191l164 239h239l-239 -239h-164zM170 0v1050h185v-1050h-185z" />
<glyph unicode="&#xee;" horiz-adv-x="525" d="M13 1170l175 260h150l175 -260h-150l-100 160l-100 -160h-150zM171 0v1050h185v-1050h-185z" />
<glyph unicode="&#xef;" horiz-adv-x="525" d="M-15 1260v170h185v-170h-185zM170 0v1050h185v-1050h-185zM355 1260v170h185v-170h-185z" />
<glyph unicode="&#xf0;" horiz-adv-x="1190" d="M100 540q0 510 464 510q177 0 296 -90q-49 141 -147 220l-283 -119v119l161 68q-90 32 -205 32h-206v150h208q241 0 399 -100l240 100v-119l-143 -60q206 -211 206 -671q0 -590 -497 -590q-493 0 -493 550zM281 540q0 -400 313 -400q311 0 311 436q0 126 -18 244 q-80 90 -294 90q-312 0 -312 -370z" />
<glyph unicode="&#xf1;" horiz-adv-x="1205" d="M150 0v1050h125l33 -134q161 134 354 134q393 0 393 -391v-659h-185v662q0 234 -233 234q-159 0 -302 -133v-763h-185zM353 1234v150q60 46 130 46q52 0 110 -26t114 -26q75 0 146 46v-150q-60 -46 -130 -46q-52 0 -110 26t-114 26q-75 0 -146 -46z" />
<glyph unicode="&#xf2;" horiz-adv-x="1200" d="M100 525q0 525 500 525t500 -525q0 -524 -500 -524q-498 0 -500 524zM285 529q0 -379 315 -379t315 379q0 371 -315 371t-315 -371zM331 1430h239l164 -239h-164z" />
<glyph unicode="&#xf3;" horiz-adv-x="1200" d="M100 525q0 525 500 525t500 -525q0 -524 -500 -524q-498 0 -500 524zM285 529q0 -379 315 -379t315 379q0 371 -315 371t-315 -371zM466 1191l164 239h239l-239 -239h-164z" />
<glyph unicode="&#xf4;" horiz-adv-x="1200" d="M100 525q0 525 500 525t500 -525q0 -524 -500 -524q-498 0 -500 524zM285 529q0 -379 315 -379t315 379q0 371 -315 371t-315 -371zM350 1170l175 260h150l175 -260h-150l-100 160l-100 -160h-150z" />
<glyph unicode="&#xf5;" horiz-adv-x="1200" d="M100 525q0 525 500 525t500 -525q0 -524 -500 -524q-498 0 -500 524zM285 529q0 -379 315 -379t315 379q0 371 -315 371t-315 -371zM350 1234v150q60 46 130 46q52 0 110 -26t114 -26q75 0 146 46v-150q-60 -46 -130 -46q-52 0 -110 26t-114 26q-75 0 -146 -46z" />
<glyph unicode="&#xf6;" horiz-adv-x="1200" d="M100 525q0 525 500 525t500 -525q0 -524 -500 -524q-498 0 -500 524zM285 529q0 -379 315 -379t315 379q0 371 -315 371t-315 -371zM323 1260v170h185v-170h-185zM693 1260v170h185v-170h-185z" />
<glyph unicode="&#xf7;" horiz-adv-x="985" d="M100 450v150h785v-150h-785zM400 150v150h185v-150h-185zM400 750v150h185v-150h-185z" />
<glyph unicode="&#xf8;" horiz-adv-x="1200" d="M100 525q0 525 500 525q163 0 273 -56l42 56h198l-118 -154q105 -131 105 -371q0 -524 -500 -524q-148 0 -252 46l-36 -47h-197l105 138q-119 131 -120 387zM285 529q0 -150 49 -241l437 573q-69 39 -171 39q-315 0 -315 -371zM449 179q63 -29 151 -29q315 0 315 379 q0 128 -38 212z" />
<glyph unicode="&#xf9;" horiz-adv-x="1205" d="M150 391v659h185v-662q0 -234 232 -234q159 0 303 133v763h185v-1050h-127l-32 134q-191 -134 -384 -134q-362 0 -362 391zM334 1430h239l164 -239h-164z" />
<glyph unicode="&#xfa;" horiz-adv-x="1205" d="M150 391v659h185v-662q0 -234 232 -234q159 0 303 133v763h185v-1050h-127l-32 134q-191 -134 -384 -134q-362 0 -362 391zM468 1191l164 239h239l-239 -239h-164z" />
<glyph unicode="&#xfb;" horiz-adv-x="1205" d="M150 391v659h185v-662q0 -234 232 -234q159 0 303 133v763h185v-1050h-127l-32 134q-191 -134 -384 -134q-362 0 -362 391zM353 1170l175 260h150l175 -260h-150l-100 160l-100 -160h-150z" />
<glyph unicode="&#xfc;" horiz-adv-x="1205" d="M150 391v659h185v-662q0 -234 232 -234q159 0 303 133v763h185v-1050h-127l-32 134q-191 -134 -384 -134q-362 0 -362 391zM325 1260v170h185v-170h-185zM695 1260v170h185v-170h-185z" />
<glyph unicode="&#xfd;" d="M25 1050h201l297 -820l307 820h196l-436 -1081q-116 -286 -348 -357l-71 131q176 77 256 251zM391 1191l164 239h239l-239 -239h-164z" />
<glyph unicode="&#xfe;" horiz-adv-x="1187" d="M150 -380v1810h185v-399q96 19 247 19q505 0 505 -499q0 -551 -508 -551q-126 0 -244 50v-430h-185zM335 214q109 -54 243 -54q327 0 327 393q0 343 -325 343q-140 0 -245 -24v-658z" />
<glyph unicode="&#xff;" d="M25 1050h201l297 -820l307 820h196l-436 -1081q-116 -286 -348 -357l-71 131q176 77 256 251zM248 1260v170h185v-170h-185zM618 1260v170h185v-170h-185z" />
<glyph unicode="&#x152;" horiz-adv-x="2215" d="M100 713q0 717 718 717h1257v-150h-775q195 -148 225 -480h515v-150h-515q-30 -357 -225 -500h790v-150h-1272q-718 0 -718 713zM295 719q0 -569 523 -569q512 0 512 569q0 561 -512 561q-523 0 -523 -561z" />
<glyph unicode="&#x153;" horiz-adv-x="1949" d="M100 525q0 525 500 525q284 0 407 -199q118 199 395 199q448 0 448 -443q0 -63 -9 -135h-737q0 -322 376 -322q179 0 318 40v-150q-139 -40 -338 -40q-317 0 -447 210q-121 -209 -413 -209q-498 0 -500 524zM285 529q0 -379 315 -379t315 379q0 371 -315 371t-315 -371z M1104 626h568q-6 276 -270 276q-280 0 -298 -276z" />
<glyph unicode="&#x178;" horiz-adv-x="1300" d="M25 1430h205l412 -747l418 747h215l-546 -930v-500h-185v500zM373 1640v170h185v-170h-185zM743 1640v170h185v-170h-185z" />
<glyph unicode="&#x2c6;" horiz-adv-x="700" d="M100 1170l175 260h150l175 -260h-150l-100 160l-100 -160h-150z" />
<glyph unicode="&#x2dc;" horiz-adv-x="700" d="M100 1234v150q60 46 130 46q52 0 110 -26t114 -26q75 0 146 46v-150q-60 -46 -130 -46q-52 0 -110 26t-114 26q-75 0 -146 -46z" />
<glyph unicode="&#x2000;" horiz-adv-x="917" />
<glyph unicode="&#x2001;" horiz-adv-x="1835" />
<glyph unicode="&#x2002;" horiz-adv-x="917" />
<glyph unicode="&#x2003;" horiz-adv-x="1835" />
<glyph unicode="&#x2004;" horiz-adv-x="611" />
<glyph unicode="&#x2005;" horiz-adv-x="458" />
<glyph unicode="&#x2006;" horiz-adv-x="305" />
<glyph unicode="&#x2007;" horiz-adv-x="305" />
<glyph unicode="&#x2008;" horiz-adv-x="229" />
<glyph unicode="&#x2009;" horiz-adv-x="367" />
<glyph unicode="&#x200a;" horiz-adv-x="101" />
<glyph unicode="&#x2010;" horiz-adv-x="700" d="M100 450v150h500v-150h-500z" />
<glyph unicode="&#x2011;" horiz-adv-x="700" d="M100 450v150h500v-150h-500z" />
<glyph unicode="&#x2012;" horiz-adv-x="700" d="M100 450v150h500v-150h-500z" />
<glyph unicode="&#x2013;" horiz-adv-x="1200" d="M100 450v150h1000v-150h-1000z" />
<glyph unicode="&#x2014;" horiz-adv-x="1700" d="M100 450v150h1500v-150h-1500z" />
<glyph unicode="&#x2018;" horiz-adv-x="410" d="M50 995l150 435h185l-150 -435h-185z" />
<glyph unicode="&#x2019;" horiz-adv-x="435" d="M50 995l150 435h185l-150 -435h-185z" />
<glyph unicode="&#x201a;" horiz-adv-x="410" d="M25 -250l150 435h185l-150 -435h-185z" />
<glyph unicode="&#x201c;" horiz-adv-x="780" d="M50 995l150 435h185l-150 -435h-185zM420 995l150 435h185l-150 -435h-185z" />
<glyph unicode="&#x201d;" horiz-adv-x="780" d="M50 995l150 435h185l-150 -435h-185zM420 995l150 435h185l-150 -435h-185z" />
<glyph unicode="&#x201e;" horiz-adv-x="780" d="M25 -250l150 435h185l-150 -435h-185zM395 -250l150 435h185l-150 -435h-185z" />
<glyph unicode="&#x2022;" horiz-adv-x="630" d="M100 725q0 215 215 215t215 -215t-215 -215t-215 215z" />
<glyph unicode="&#x2026;" horiz-adv-x="1185" d="M100 0v185h185v-185h-185zM500 0v185h185v-185h-185zM900 0v185h185v-185h-185z" />
<glyph unicode="&#x202f;" horiz-adv-x="367" />
<glyph unicode="&#x2039;" horiz-adv-x="610" d="M100 525l258 375h202l-258 -375l258 -375h-202z" />
<glyph unicode="&#x203a;" horiz-adv-x="610" d="M50 150l258 375l-258 375h202l258 -375l-258 -375h-202z" />
<glyph unicode="&#x205f;" horiz-adv-x="458" />
<glyph unicode="&#x20ac;" horiz-adv-x="1385" d="M100 735q0 705 750 705q215 0 400 -60v-160q-185 70 -380 70q-498 0 -585 -348h773v-150h-793v-110h793v-150h-773q77 -392 585 -392q195 0 380 70v-160q-185 -60 -400 -60q-750 0 -750 745z" />
<glyph unicode="&#x2122;" horiz-adv-x="1606" d="M150 1359v71h511v-71h-212v-602h-87v602h-212zM750 757v673h110l248 -561l242 561h106v-673h-78v543l-239 -543h-69l-243 543v-543h-77z" />
</font>
</defs>
</svg>
